<?xml version="1.0" standalone="no"?>
<!DOCTYPE svg PUBLIC "-//W3C//DTD SVG 1.1//EN" "http://www.w3.org/Graphics/SVG/1.1/DTD/svg11.dtd" >
<svg xmlns="http://www.w3.org/2000/svg">
<metadata>Generated by IcoMoon</metadata>
<defs>
<font id="Kemana-Theme-Icons" horiz-adv-x="1024">
<font-face units-per-em="1024" ascent="960" descent="-64" />
<missing-glyph horiz-adv-x="1024" />
<glyph unicode="&#x20;" horiz-adv-x="512" d="" />
<glyph unicode="&#xe600;" glyph-name="wishlist-full" d="M676.571 628.553c-59.867 28.197-131.255 2.523-159.415-57.307-1.975-4.133-3.657-9.362-5.157-15.397-1.499 6.034-3.182 11.264-5.157 15.397-28.197 59.831-99.547 85.504-159.415 57.307-59.831-28.197-85.504-99.547-57.271-159.378 28.197-59.867 221.806-231.424 221.806-231.424s0 0.219 0.037 0.585c0.037-0.366 0.037-0.585 0.037-0.585s193.646 171.557 221.806 231.424c28.233 59.831 2.597 131.182-57.271 159.378z" />
<glyph unicode="&#xe601;" glyph-name="wishlist-empty" d="M676.571 628.553c-59.831 28.197-131.218 2.523-159.451-57.307-1.938-4.133-3.657-9.362-5.157-15.397-1.463 6.034-3.182 11.264-5.157 15.397-28.16 59.831-99.547 85.504-159.378 57.307s-85.467-99.547-57.271-159.378 221.806-231.424 221.806-231.424 0 0.219 0.037 0.585c0-0.402 0-0.622 0-0.622s193.646 171.557 221.842 231.424c28.233 59.867 2.597 131.218-57.271 159.415zM690.213 470.089c-25.417-43.776-174.007-184.722-174.007-184.722l-1.573 2.999c0 0-155.465 140.398-181.211 183.991-30.61 51.822-7.753 108.946 38.949 128.439 43.52 18.176 101.888-27.319 123.502-73.143 1.499-3.182 17.627-1.463 18.798-6.107 1.134 4.645 12.727 2.926 14.226 6.107 21.577 45.824 81.042 93.989 128 72.411 46.007-21.138 66.926-72.155 33.317-129.975z" />
<glyph unicode="&#xe602;" glyph-name="warning" d="M512 694.967l-296.85-512.256h593.701l-296.85 512.256zM544.219 244.992h-62.757v49.92h62.757v-49.92zM528.713 334.226h-31.269l-20.809 140.654-1.207 72.704h72.521v-72.704l-19.237-140.654z" />
<glyph unicode="&#xe603;" glyph-name="update" d="M628.846 579.401c-34.085 28.343-75.63 42.24-116.773 42.24-47.47 0-94.757-18.578-130.085-54.382l-32.073 29.586-0.585-102.693 110.994-0.658-39.424 41.253c25.198 24.027 58.002 36.315 91.136 36.352 29.842-0.037 59.721-9.947 84.517-30.574 31.488-26.222 47.689-63.744 47.726-101.815 0-5.449-0.366-10.971-1.024-16.457l51.383 9.874c0.073 2.231 0.146 4.425 0.146 6.619 0.037 52.37-22.491 104.521-65.938 140.654zM603.794 343.625c-25.307-24.466-58.405-37.010-91.867-37.047-29.879 0.037-59.721 9.984-84.517 30.574-31.488 26.222-47.689 63.744-47.726 101.778 0 6.327 0.475 12.617 1.353 18.871l-51.602-9.691c-0.146-3.072-0.256-6.107-0.256-9.179-0.037-52.334 22.491-104.521 65.975-140.617 34.048-28.343 75.593-42.24 116.736-42.24h0.11c47.799 0 95.378 18.907 130.743 55.223l33.938-33.829 0.219 106.094-112.055 0.293 38.949-40.229z" />
<glyph unicode="&#xe604;" glyph-name="trash" d="M696.942 615.79l-19.273 6.107h-74.496v38.583l-12.544 21.029-22.711 13.495h-111.141l-23.333-13.495-12.581-21.029v-38.619h-73.765l-18.761-6.656-17.189-14.153v-88.869h19.017v-0.073h17.554v-329.435h36.571v0.293h255.415v-0.293h36.571v329.435h18.286v0.073h18.286v86.601l-15.909 17.006zM457.435 658.432h109.129v-36.571h-109.129v36.571zM639.707 219.575h-255.415v292.571h255.415v-292.571zM676.279 548.791h-328.558v36.498h328.558v-36.498zM457.435 474.368h-36.571v-218.587h36.571v218.587zM530.578 474.368h-36.571v-218.587h36.571v218.587zM603.721 474.368h-36.571v-218.587h36.571v218.587z" />
<glyph unicode="&#xe605;" glyph-name="star" d="M804.645 506.258c-1.499 4.681-5.888 7.899-10.789 7.899h-206.958l-64.073 196.754c-1.536 4.645-5.888 7.826-10.825 7.826-4.901 0-9.289-3.182-10.825-7.863l-64.439-196.754h-206.592c-4.901 0-9.289-3.218-10.825-7.863-1.499-4.681 0.146-9.874 4.096-12.763l167.205-121.783-64.439-197.851c-1.536-4.681 0.146-9.838 4.133-12.727 3.95-2.889 9.399-2.889 13.349 0l168.338 122.185 167.936-122.149c2.011-1.463 4.315-2.231 6.693-2.231s4.681 0.768 6.693 2.231c4.023 2.889 5.669 8.009 4.133 12.727l-64.439 197.851 167.57 121.783c3.95 2.889 5.632 8.046 4.059 12.727z" />
<glyph unicode="&#xe606;" glyph-name="settings" d="M807.241 406.711v67.145l-9.509 3.145-71.936 23.442-19.2 46.373 36.937 78.080-47.506 47.506-8.923-4.498-67.438-34.304-46.373 19.2-29.111 81.298h-67.182l-26.624-81.445-46.336-19.163-78.043 36.901-47.506-47.506 4.498-8.96 34.267-67.438-19.2-46.336-81.298-29.074v-67.218l9.472-3.072 71.973-23.515 19.163-46.373-36.901-78.080 47.506-47.506 8.887 4.498 67.474 34.304 46.373-19.2 29.111-81.298h67.182l3.072 9.509 23.515 71.936 46.373 19.2 78.080-36.937 47.506 47.506-4.498 8.923-34.304 67.438 19.2 46.373 81.298 29.147zM512 344.795c-51.968 0-94.062 42.13-94.062 94.062 0 52.005 42.094 94.062 94.062 94.062 51.931 0 94.098-42.057 94.098-94.062-0.037-51.931-42.167-94.062-94.098-94.062z" />
<glyph unicode="&#xe607;" glyph-name="pointer-down" d="M339.602 530.798l172.398-183.881 172.398 183.881z" />
<glyph unicode="&#xe608;" glyph-name="next" d="M606.939 440.795l-158.391 162.853-27.794-26.075 132.827-136.558-136.521-140.361 27.173-26.587 153.198 157.55-0.146 0.146z" />
<glyph unicode="&#xe609;" glyph-name="menu" d="M127.634 731.428v-73.143h768.731v73.143h-768.731zM127.634 402.286h768.731v73.143h-768.731v-73.143zM127.634 146.286h768.731v73.143h-768.731v-73.143z" />
<glyph unicode="&#xe60a;" glyph-name="location" d="M512 733.074c-102.437 0-185.417-83.054-185.417-185.454 0-102.437 185.417-403.017 185.417-403.017s185.454 300.581 185.454 403.017c-0.037 102.437-83.017 185.454-185.454 185.454zM512 491.3c-31.122 0-56.357 25.198-56.357 56.357 0 31.086 25.234 56.357 56.357 56.357 31.159 0 56.393-25.271 56.393-56.357-0.037-31.159-25.271-56.357-56.393-56.357z" />
<glyph unicode="&#xe60b;" glyph-name="list" d="M219.429 476.452h255.927v254.793h-255.927v-254.793zM548.571 731.246v-109.349h256v109.349h-256zM219.429 147.31h255.927v254.793h-255.927v-254.793zM548.571 475.611h256v109.349h-256v-109.349zM548.571 292.754h256v109.349h-256v-109.349zM548.571 146.468h256v109.349h-256v-109.349z" />
<glyph unicode="&#xe60c;" glyph-name="info" d="M579.511 667.867c-30.793 0-57.381-25.161-57.381-55.954 0-28.635 18.907-47.579 47.579-47.579 31.415 0 58.002 23.771 58.002 55.991 0 28.709-20.224 47.543-48.201 47.543zM593.518 327.351c-9.801 0-48.311-59.502-69.266-59.502-5.595 0-8.375 4.937-8.375 9.801 0 11.227 7.68 28.709 11.849 39.205l50.322 136.375c25.198 67.84-6.985 86.016-37.047 86.016-40.558 0-76.946-20.297-104.887-46.848-9.106-9.070-39.863-38.437-39.863-51.054 0-4.133 4.169-9.070 9.106-9.070 12.544 0 46.153 60.855 72.009 60.855 5.595 0 11.886-6.29 6.985-18.871l-48.896-123.173c-4.937-11.849-28.709-69.23-28.709-102.802 0-26.587 17.518-38.437 42.679-38.437 70.656 0 152.43 86.711 152.43 107.008 0 6.29-4.864 10.496-8.338 10.496z" />
<glyph unicode="&#xe60d;" glyph-name="grid" d="M219.063 584.777h147.017v147.017h-147.017v-147.017zM438.491 584.777h147.017v147.017h-147.017v-147.017zM657.92 731.794v-147.017h147.017v147.017h-147.017zM219.063 365.348h147.017v147.017h-147.017v-147.017zM438.491 365.348h147.017v147.017h-147.017v-147.017zM657.92 365.348h147.017v147.017h-147.017v-147.017zM219.063 145.92h147.017v147.017h-147.017v-147.017zM438.491 145.92h147.017v147.017h-147.017v-147.017zM657.92 145.92h147.017v147.017h-147.017v-147.017z" />
<glyph unicode="&#xe60e;" glyph-name="comment-reflected" d="M711.607 392.448l-5.486-5.522c21.065 27.794 32.878 60.197 32.219 94.72-1.975 99.218-106.679 177.627-233.874 175.141-127.232-2.487-228.791-84.992-226.816-184.21 1.938-99.182 106.679-177.554 233.911-175.067 28.635 0.585 50.432-5.815 75.63 2.121l159.232-78.702c-0.037-0.037-71.058 124.965-34.816 171.52z" />
<glyph unicode="&#xe60f;" glyph-name="collapse" d="M236.946 457.143h550.107v-36.571h-550.107v36.571z" />
<glyph unicode="&#xe610;" glyph-name="checkmark" d="M749.129 654.555c-152.101-93.257-262.473-210.907-312.064-269.934l-121.417 95.159-53.65-43.264 209.847-213.394c36.096 92.489 150.491 273.298 290.158 401.737l-12.873 29.696z" />
<glyph unicode="&#xe611;" glyph-name="cart" d="M434.871 250.807c-35.218 0-63.707-28.526-63.707-63.744 0-35.182 28.489-63.671 63.707-63.671 35.182 0 63.707 28.489 63.707 63.671 0 35.218-28.526 63.744-63.707 63.744zM654.848 250.807c-35.218 0-63.707-28.526-63.707-63.744 0-35.182 28.489-63.671 63.707-63.671 35.145 0 63.707 28.489 63.707 63.671 0 35.218-28.562 63.744-63.707 63.744zM784.274 607.598c-163.511 0-427.227 0-427.227 0s-25.929 70.071-49.957 113.371c-24.027 43.227-57.893 32.037-57.893 32.037-26.843 0-39.314-16.055-39.314-42.971 0-26.843 16.457-48.64 43.337-48.64l16.603-14.848 121.929-330.533 356.425-0.256c0 0 65.17 261.705 61.806 251.355 11.959 36.974-3.255 40.485-25.71 40.485zM392.485 483.401c-18.725 0-33.902 15.177-33.902 33.902s15.177 33.902 33.902 33.902 33.902-15.177 33.902-33.902-15.177-33.902-33.902-33.902zM464.933 370.249c-18.725 0-33.902 15.177-33.902 33.902s15.177 33.902 33.902 33.902 33.902-15.177 33.902-33.902-15.177-33.902-33.902-33.902zM502.199 483.401c-18.725 0-33.902 15.177-33.902 33.902s15.177 33.902 33.902 33.902 33.902-15.177 33.902-33.902-15.177-33.902-33.902-33.902zM574.647 370.249c-18.725 0-33.865 15.177-33.865 33.902s15.177 33.902 33.865 33.902 33.938-15.177 33.938-33.902-15.214-33.902-33.938-33.902zM611.913 483.401c-18.725 0-33.938 15.177-33.938 33.902s15.214 33.902 33.938 33.902 33.865-15.177 33.865-33.902-15.141-33.902-33.865-33.902zM684.361 370.249c-18.725 0-33.865 15.177-33.865 33.902s15.141 33.902 33.865 33.902 33.938-15.177 33.938-33.902-15.214-33.902-33.938-33.902zM721.627 483.401c-18.725 0-33.938 15.177-33.938 33.902s15.214 33.902 33.938 33.902 33.865-15.177 33.865-33.902-15.141-33.902-33.865-33.902z" />
<glyph unicode="&#xe612;" glyph-name="calendar" d="M642.487 569.161c11.959 0 21.65 9.691 21.65 21.65v77.934c0 11.959-9.691 21.65-21.65 21.65-11.922 0-21.65-9.691-21.65-21.65v-77.934c0.037-11.959 9.728-21.65 21.65-21.65zM381.842 569.161c11.922 0 21.65 9.691 21.65 21.65v77.934c0 11.959-9.728 21.65-21.65 21.65-11.959 0-21.65-9.691-21.65-21.65v-77.934c0.037-11.959 9.691-21.65 21.65-21.65zM671.269 627.419v-0.402c8.997-7.973 14.702-19.566 14.702-32.549 0-23.991-19.456-43.447-43.483-43.447-23.991 0-43.447 19.456-43.447 43.447 0 12.946 5.705 24.576 14.702 32.549v0.402h-203.154v-0.402c8.997-7.973 14.702-19.566 14.702-32.549 0-23.991-19.456-43.447-43.447-43.447-24.027 0-43.447 19.456-43.447 43.447 0 12.946 5.669 24.576 14.665 32.549v0.402h-96.841v-440.101h511.561v440.101h-96.512zM732.087 225.426h-437.76v291.694h437.76v-291.694zM619.301 397.97h-55.15v-55.113h55.15v55.113zM619.301 480.878h-55.15v-55.113h55.15v55.113zM619.301 317.367h-55.15v-55.15h55.15v55.15zM696.942 480.878h-55.15v-55.113h55.15v55.113zM696.942 397.97h-55.15v-55.113h55.15v55.113zM386.267 317.367h-55.113v-55.15h55.113v55.15zM463.982 317.367h-55.15v-55.15h55.15v55.15zM463.982 397.97h-55.15v-55.113h55.15v55.113zM386.267 397.97h-55.113v-55.113h55.113v55.113zM541.586 397.97h-55.113v-55.113h55.113v55.113zM541.586 480.878h-55.113v-55.113h55.113v55.113zM463.982 480.878h-55.15v-55.113h55.15v55.113zM541.586 317.367h-55.113v-55.15h55.113v55.15z" />
<glyph unicode="&#xe613;" glyph-name="arrow-up" d="M512 668.599l-209.006-253.257h136.338v-206.19h145.298v206.19h136.375z" />
<glyph unicode="&#xe614;" glyph-name="arrow-down" d="M584.631 462.372v206.226h-145.298v-206.226h-136.338l209.006-253.221 209.006 253.221z" />
<glyph unicode="&#xe615;" glyph-name="search" d="M836.462 174.775c0 0-109.641 112.677-153.381 156.233-19.054 19.017-32.073 31.927-32.073 31.927 14.848 21.211 26.405 44.361 34.633 69.339s12.361 51.237 12.361 78.848c0 35.621-6.802 69.083-20.334 100.462-13.568 31.305-32 58.697-55.406 82.030-23.369 23.442-50.725 41.874-82.066 55.406-31.305 13.605-64.768 20.37-100.389 20.37-35.584 0-69.047-6.802-100.425-20.37-31.305-13.531-58.551-31.963-81.664-55.406-23.077-23.296-41.435-50.688-54.967-81.993-13.568-31.378-20.334-64.841-20.334-100.462s6.802-69.083 20.334-100.389c13.531-31.305 31.89-58.661 54.967-82.103 23.113-23.333 50.322-41.801 81.664-55.369 31.378-13.568 64.841-20.297 100.425-20.297 27.648 0 53.943 4.023 78.885 12.288s48.091 19.858 69.303 34.706c0 0 11.922-11.959 29.696-29.806 48.421-48.603 155.026-159.159 155.026-159.159 16.018-6.985 41.728 0.439 54.455 11.337s19.858 33.682 9.289 52.407zM612.718 437.87c-9.838-22.747-23.223-42.569-40.155-59.429-16.933-16.933-36.718-30.354-59.429-40.192-22.638-9.874-46.848-14.775-72.521-14.775-26.258 0-50.688 4.937-73.362 14.775s-42.496 23.259-59.429 40.192c-16.896 16.859-30.354 36.681-40.155 59.429-9.838 22.601-14.738 47.104-14.738 73.289 0 25.673 4.901 50.030 14.738 72.997 9.838 22.93 23.259 42.898 40.155 59.794 16.933 16.969 36.754 30.354 59.429 40.155 22.674 9.911 47.104 14.738 73.362 14.738 25.673 0 49.883-4.864 72.521-14.738 22.674-9.801 42.496-23.186 59.429-40.155 16.933-16.933 30.318-36.901 40.155-59.831 9.874-22.967 14.738-47.323 14.738-72.997 0-26.149-4.901-50.651-14.738-73.253z" />
<glyph unicode="&#xe616;" glyph-name="remove" d="M695.845 593.518l-29.147 29.111-154.697-154.734-154.734 154.734-29.111-29.111 154.734-154.734-154.624-154.624 29.111-29.074 154.624 154.587 154.661-154.587 29.038 29.074-154.587 154.624z" />
<glyph unicode="&#xe617;" glyph-name="prev" d="M470.418 441.015l132.791 136.558-27.794 26.075-158.354-162.853 9.618-9.033-0.11-0.146 153.234-157.55 27.136 26.587z" />
<glyph unicode="&#xe618;" glyph-name="pointer-up" d="M512 530.798l-172.398-183.881h344.795z" />
<glyph unicode="&#xe619;" glyph-name="pointer-right" d="M392.119 612.9v-348.087l239.726 174.043z" />
<glyph unicode="&#xe61a;" glyph-name="pointer-left" d="M392.119 438.857l239.726-174.043v348.087z" />
<glyph unicode="&#xe61b;" glyph-name="flag" d="M237.714 182.016h73.728v513.682h-73.728v-513.682zM786.286 693.943h-440.283v-292.169h440.283l-148.078 144.128 148.078 148.041z" />
<glyph unicode="&#xe61c;" glyph-name="expand" d="M787.054 457.216h-256.219v256.695h-36.571v-256.695h-257.317v-36.571h257.317v-256.841h36.571v256.841h256.219z" />
<glyph unicode="&#xe61d;" glyph-name="envelope" d="M769.134 585.143v36.571h-513.17v-25.271l-1.097-1.097 1.097-1.097v-9.106h0.622v-292.571h-0.622v-8.558l-1.097-1.097 1.097-1.097v-25.819h513.17v36.571h-0.585v292.571h0.585zM703.89 292.571h-387.657l119.881 119.881-25.856 25.856-117.138-117.138v236.361l220.014-217.088 25.856 25.856-1.39 1.353 194.377 194.341v-245.87l-122.149 122.149-25.856-25.856 119.918-119.845zM317.221 585.143h386.158l-191.781-191.781-194.377 191.781z" />
<glyph unicode="&#xe61e;" glyph-name="compare-full" d="M310.747 201.216h109.166v328.485h-109.166v-328.485zM604.050 346.441v-145.225h109.202v145.225h-109.202zM457.399 201.216h109.202v475.319h-109.202v-475.319z" />
<glyph unicode="&#xe61f;" glyph-name="compare-empty" d="M310.747 201.216h109.166v328.485h-109.166v-328.485zM347.941 494.482h36.864v-256.768h-36.864v256.768zM604.050 346.441v-145.225h109.202v145.225h-109.202zM677.339 237.568h-36.827v71.863h36.827v-71.863zM457.399 201.216h109.202v475.319h-109.202v-475.319zM494.263 640.695h36.827v-402.834h-36.827v402.834z" />
<glyph unicode="&#xe620;" glyph-name="comment" d="M519.57 656.75c-127.232 2.487-231.936-75.922-233.911-175.141-0.695-34.487 11.154-66.926 32.219-94.72l-5.486 5.522c36.242-46.519-34.816-171.52-34.816-171.52l159.232 78.702c25.161-7.936 46.994-1.536 75.63-2.121 127.232-2.487 231.973 75.886 233.911 175.067 2.011 99.255-99.511 181.723-226.779 184.21z" />
<glyph unicode="&#xe621;" glyph-name="up" d="M514.158 480.439l136.558-132.791 26.075 27.794-162.853 158.354-166.729-162.743 26.587-27.136z" />
<glyph unicode="&#xe622;" glyph-name="down" d="M509.842 397.275l-136.558 132.791-26.075-27.794 162.853-158.354 166.729 162.743-26.587 27.136z" />
<glyph unicode="&#xe623;" glyph-name="help" d="M512 42.862c-218.77 0-396.032 177.298-396.032 395.995s177.262 395.995 396.032 395.995c218.661 0 396.032-177.298 396.032-395.995s-177.371-395.995-396.032-395.995zM512 786.944c-191.89 0-348.087-156.197-348.087-348.087 0-191.927 156.197-348.087 348.087-348.087s348.050 156.16 348.050 348.087c-0.037 191.927-156.16 348.087-348.050 348.087zM611.328 433.298l-24.101-18.761c-13.166-10.24-21.87-22.126-26.185-35.84-2.743-8.558-4.681-18.907-4.901-37.12h-92.343c1.353 38.473 5.413 61.842 11.301 76.581 5.925 14.592 21.102 31.488 45.531 50.578l24.795 19.383c8.192 6.181 14.738 12.91 19.785 20.187 8.997 12.471 13.495 26.222 13.495 41.216 0 17.262-5.010 32.987-15.104 47.214-10.057 14.226-28.453 21.321-55.259 21.321-26.295 0-44.946-8.777-55.918-26.295s-16.384-33.463-16.384-52.37h-98.523c2.706 64.805 25.234 108.544 67.73 135.57 26.843 17.298 59.794 25.929 98.889 25.929 51.383 0 94.025-12.288 128-36.827 34.011-24.503 53.87-74.935 53.87-123.173 0-29.55-10.24-40.338-25.051-60.599-8.558-12.288-25.125-27.941-49.627-46.994zM561.042 193.28h-98.231v98.487h98.231v-98.487z" />
<glyph unicode="&#xe624;" glyph-name="arrow-right-thin" d="M1.994 509.607h748.928l-283.278 291.206h200.254l354.108-363.956-354.108-363.956h-200.254l283.278 291.174h-748.928v145.532z" />
<glyph unicode="&#xe625;" glyph-name="arrow-left-thin" d="M1022.006 366.107h-748.928l283.278-291.206h-200.254l-354.108 363.956 354.108 363.956h200.254l-283.278-291.174h748.928v-145.532z" />
<glyph unicode="&#xe626;" glyph-name="arrow-down-thin" d="M85.174 458.883l0.504-106.238 426.322-426.324 426.32 426.324 0.504 106.238-389.444-389.444 0.002 880.006h-74.764v-880.004z" />
<glyph unicode="&#xe627;" glyph-name="account" d="M511.963 821.943c-211.529 0-383.049-171.52-383.049-383.086s171.483-383.086 383.049-383.086c211.602 0 383.086 171.483 383.086 383.086s-171.483 383.086-383.086 383.086zM511.963 785.371c191.086 0 346.514-155.429 346.514-346.514 0-79.909-27.429-153.344-73.070-212.041-5.486 1.975-11.008 3.84-16.274 6.107-34.926 14.629-73.801 31.781-108.654 46.153-9.911 2.706-19.931 5.413-29.842 8.155-11.849 8.155-23.589 35.365-29.915 48.933-6.29 0.914-12.654 1.792-19.017 2.633 0.914 20.992 13.934 22.126 19.017 38.071 4.498 14.080 0.512 32.439 7.57 45.495 4.937 9.070 16.128 9.070 21.65 16.933 5.083 6.985 8.411 19.273 9.984 27.941 2.853 15.799 5.339 37.339-2.158 53.029-4.279 8.96-6.985 9.874-8.229 20.736-1.426 13.275 3.913 56.43 4.133 65.755 0.512 24.21-0.073 26.149-5.925 49.737 0 0-7.058 21.358-18.213 27.831l-22.272 3.803-13.714 12.727c-55.369 34.085-114.761 10.167-146.505-2.67-45.824-14.885-74.789-59.758-54.565-155.538 3.474-16.421-8.96-23.698-8.155-32.658 1.829-19.566 2.158-66.487 20.59-78.080 1.719-1.061 14.811-4.352 14.738-3.438 1.792-19.017 3.621-38.071 5.376-57.015 4.608-12.654 15.689-14.080 18.907-31.927l-14.153-3.438c-6.363-13.568-17.993-40.777-29.879-48.933-9.947-2.706-19.931-5.413-29.879-8.155-34.889-14.373-73.691-31.488-108.654-46.153-1.902-0.768-3.877-1.39-5.815-2.158-43.776 58.112-70.071 130.011-70.071 208.165 0 191.086 155.429 346.514 346.478 346.514z" />
<glyph unicode="&#xe628;" glyph-name="gift-registry" d="M427.703 643.876c0-10.569-8.558-19.090-19.090-19.090h-11.154c-10.533 0-19.090 8.521-19.090 19.090v68.462c0 10.533 8.594 19.090 19.090 19.090h11.154c10.533 0 19.090-8.558 19.090-19.090v-68.462zM645.778 643.876c0-10.569-8.521-19.090-19.054-19.090h-11.154c-10.533 0-19.054 8.521-19.054 19.090v68.462c-0.037 10.533 8.485 19.090 19.054 19.090h11.154c10.533 0 19.054-8.558 19.054-19.090v-68.462zM675.182 472.174l-38.729 31.598-152.795-187.282-81.518 64.805-28.891-36.242 120.21-95.634zM758.784 678.839h-71.351v-29.769c0-31.634-25.746-57.344-57.271-57.344h-11.227c-31.598 0-57.271 25.71-57.271 57.344v29.769h-97.682v-29.769c0-31.634-25.71-57.344-57.307-57.344h-11.154c-31.598 0-57.307 25.71-57.307 57.344v29.769h-72.96c-10.533 0-19.090-8.521-19.090-19.054v-494.373c-0.037-10.569 8.558-19.127 19.090-19.127h493.531c10.533 0 19.054 8.558 19.054 19.090v494.409c0 10.533-8.521 19.054-19.054 19.054zM720.567 231.534c0-10.569-8.558-19.090-19.090-19.090h-378.917c-10.569 0-19.090 8.521-19.090 19.090v288.11c0 10.569 8.521 19.054 19.090 19.054h378.88c10.533 0 19.090-8.485 19.090-19.054v-288.11z" />
<glyph unicode="&#xe629;" glyph-name="present" d="M391.863 545.060h-128.219c-10.35 0-18.761-8.375-18.761-18.725v-91.429c0-10.35 8.375-18.725 18.761-18.725h128.219c10.35 0 18.761 8.375 18.761 18.725v91.429c0 10.386-8.375 18.725-18.761 18.725zM391.863 378.368h-90.734c-10.35 0-18.761-8.375-18.761-18.725v-194.633c0-10.35 8.411-18.725 18.761-18.725h90.734c10.35 0 18.761 8.375 18.761 18.725v194.633c0 10.35-8.375 18.725-18.761 18.725zM760.357 545.060h-279.845c-10.35 0-18.725-8.375-18.725-18.725v-91.429c0-10.35 8.375-18.725 18.725-18.725h279.845c10.313 0 18.725 8.375 18.725 18.725v91.429c-0.037 10.386-8.411 18.725-18.725 18.725zM721.701 376.43h-240.64c-10.313 0-18.725-8.375-18.725-18.761v-192.695c0-10.35 8.375-18.725 18.725-18.725h240.64c10.35 0 18.725 8.375 18.725 18.725v192.695c0 10.35-8.375 18.761-18.725 18.761zM507.355 566.491c21.87-3.986 42.971-6.327 62.647-6.327 99.072 0 152.832 53.248 153.088 103.387 0.183 32.293-23.698 67.291-78.117 67.84-72.923 0-118.089-51.493-141.605-89.71-23.918 38.107-69.266 88.576-142.373 88.576-52.882-0.549-76.763-35.547-76.581-67.84 0.256-50.139 54.016-103.424 153.088-103.424 0.037 0 0.037 0 0.037 0 21.394 0 44.398 2.414 68.425 7.241l1.39 0.256zM645.998 684.58c9.143-0.073 30.354-2.304 30.245-20.773-0.11-23.589-33.17-56.795-106.24-56.795-10.057 0-20.553 0.658-31.525 1.938 16.567 29.294 51.566 75.63 107.52 75.63zM437.504 605.842v0c-73.106 0-106.167 33.207-106.277 56.795-0.11 18.469 21.102 20.699 31.305 20.809 55.259 0 90.039-46.373 106.496-75.666-10.935-1.28-21.467-1.938-31.525-1.938z" />
<glyph unicode="&#xe633;" glyph-name="arrow-up-thin" d="M938.824 416.885l-0.504 106.238-426.32 426.322-426.322-426.322-0.504-106.238 389.444 389.442v-880.006h74.764v880.006z" />
<glyph unicode="&#xe900;" glyph-name="cart1" horiz-adv-x="814" d="M814.437 112.606l-42.865 604.874c-4.763 38.102-33.34 66.679-71.442 66.679 0 0 0 0 0 0h-100.019c-47.628 166.698-190.512 166.698-195.274 166.698-104.781-4.763-161.935-85.73-190.512-166.698h-104.781c-38.102 0-66.679-28.577-71.442-66.679l-38.102-604.874c-4.763-95.256 66.679-176.223 161.935-185.749 4.763 0 9.526 0 9.526 0h466.753c95.256 0 171.46 76.205 171.46 176.223 4.763 0 4.763 4.763 4.763 9.526zM409.6 879.415c9.526 0 85.73-4.763 119.070-95.256h-233.377c19.051 47.628 52.391 90.493 114.307 95.256zM642.977-1.701h-471.516c-57.153 4.763-100.019 52.391-95.256 109.544l33.34 604.874h90.493c0-19.051-4.763-38.102-4.763-52.391 0-19.051 14.288-38.102 33.34-38.102s38.102 14.288 38.102 33.34c0 0 0 23.814 4.763 52.391h271.479c0-14.288 4.763-33.34 4.763-52.391s14.288-38.102 38.102-38.102 33.34 19.051 33.34 42.865c0 19.051 0 38.102-4.763 52.391h85.73l42.865-604.874c0 0 0-4.763 0-4.763 0-57.153-47.628-104.781-100.019-104.781z" />
<glyph unicode="&#xe901;" glyph-name="search1" d="M946.082 50.684l-179.477 179.477c58.432 70.956 95.997 162.781 95.997 262.957 0 221.213-179.477 400.69-404.869 400.69s-400.69-179.477-400.69-400.69 179.477-400.69 400.69-400.69c100.176 0 192 37.564 262.957 95.997l179.477-179.477c4.172-4.172 12.524-8.346 20.868-8.346s16.696 4.172 20.868 8.346c16.696 8.346 16.696 29.22 4.172 41.736zM119.655 493.117c0 187.824 154.436 338.085 338.085 338.085s338.085-154.436 338.085-338.085c0-91.824-37.564-179.477-100.176-237.909 0 0 0 0 0 0s0 0 0 0c-62.608-62.608-146.085-100.176-237.909-100.176-183.649-4.172-338.085 150.257-338.085 338.085z" />
<glyph unicode="&#xe902;" glyph-name="email" horiz-adv-x="1280" d="M164.483 950.857h960.186c40.253-0.118 78.822-16.16 107.286-44.622 28.461-28.462 44.502-67.032 44.621-107.284v-720.186c-0.118-40.253-16.16-78.822-44.621-107.286-28.464-28.461-67.034-44.502-107.286-44.621h-960.186c-40.252 0.118-78.822 16.16-107.284 44.621-28.463 28.464-44.505 67.034-44.622 107.286v720.186c0.118 40.252 16.16 78.822 44.622 107.284 28.449 28.449 66.996 44.49 107.228 44.622zM1124.525 886.857h-959.899c-23.327-0.080-45.677-9.381-62.173-25.877s-25.797-38.846-25.877-62.173v-719.899c0.080-23.328 9.381-45.677 25.877-62.173 16.497-16.499 38.849-25.802 62.178-25.878h959.891c23.328 0.077 45.68 9.379 62.176 25.878 16.499 16.496 25.802 38.848 25.878 62.176v719.891c-0.077 23.329-9.379 45.68-25.878 62.177-16.496 16.496-38.845 25.797-62.173 25.877zM76.706 758.857c0 0 0-0.97 0 40.036l1.353 15.587 566.517-396.56c0 0 345.277 241.692 566.515 396.559 1.373-3.496 1.197-7.765 1.373-10.4 0.704-10.581 0-6.884 0-14.204 0-9.143 0-22.417 0-22.417 0-24.601 0-30.141 0-30.141l-549.536-384.674c-11.021-7.715-25.683-7.715-36.704 0l-549.518 384.662c0 21.552 0 21.552 0 21.552z" />
<glyph unicode="&#xe903;" glyph-name="down-arrow" horiz-adv-x="1463" d="M76.532 872.411c42.314 43.372 111.776 44.229 155.147 1.915l522.742-509.991 516.71 509.577c43.143 42.547 112.608 42.064 155.155-1.079 42.555-43.143 42.072-112.608-1.078-155.155l-669.959-660.71-676.801 660.296c-43.372 42.313-44.229 111.775-1.915 155.147z" />
<glyph unicode="&#xe904;" glyph-name="facebook" horiz-adv-x="576" d="M521.856 398.792l26.688 173.76h-166.4v112.768c-1.169 12.975 0.595 26.047 5.164 38.248s11.823 23.217 21.227 32.234c9.404 9.017 20.716 15.802 33.098 19.853s25.517 5.266 38.432 3.553h75.456v147.904c-44.497 7.179-89.46 11.094-134.528 11.712-31.009 2.36-62.157-2.128-91.238-13.145s-55.383-28.295-77.044-50.609c-21.661-22.314-38.149-49.118-48.298-78.514s-13.709-60.663-10.429-91.587v-132.416h-152.64v-173.76h152.64v-419.967h187.84v419.967h140.032z" />
<glyph unicode="&#xe905;" glyph-name="google" horiz-adv-x="964" d="M921.66 500.363l-4.759 20.239h-439.717v-186.127h262.686c-14.589-56.971-47.851-107.406-94.479-143.24-46.626-35.84-103.92-55.013-162.725-54.453-76.89 0.645-150.751 30.063-207.029 82.462-27.693 27.262-49.736 59.723-64.867 95.515s-23.056 74.22-23.317 113.080c1.14 77.996 32.14 152.586 86.618 208.414 55.515 52.483 129.252 81.339 205.643 80.474 64.534-0.972 126.554-25.181 174.682-68.186l132.518 131.554c-85.558 76.942-196.469 119.659-311.536 119.989-127.476 0.725-250.046-49.092-340.872-138.541-86.465-89.598-134.699-209.309-134.506-333.824-0.737-121.995 45.508-239.592 129.145-328.403 46.578-46.616 102.024-83.42 163.062-108.249s126.435-37.177 192.326-36.316c59.54-0.458 118.548 11.21 173.435 34.292s104.496 57.097 145.812 99.973c81.179 89.227 125.091 206.167 122.699 326.776 0.596 28.272-1.018 56.548-4.819 84.57z" />
<glyph unicode="&#xe906;" glyph-name="feather-phone" d="M981.333 228.937c0.683 30.464-10.069 59.904-28.715 82.901-19.627 24.149-48.171 41.259-82.133 46.080-34.133 4.181-72.32 13.397-110.336 27.563-18.475 6.784-38.101 9.301-57.344 7.424-28.288-2.731-55.765-14.891-77.611-36.48l-30.72-30.72c-75.52 47.659-143.36 113.792-195.541 195.797l30.976 30.976c13.739 14.080 24.021 30.976 30.165 49.323 9.045 26.965 9.131 57.003-1.664 85.803-12.331 32.128-22.101 70.144-27.477 110.72-4.437 30.464-19.456 57.387-41.088 76.971-22.997 20.736-53.589 33.237-86.485 32.896h-127.829c-3.755 0-7.765-0.171-11.648-0.512-35.157-3.2-65.792-20.395-86.741-45.483s-32.341-58.325-29.141-93.824c12.8-131.243 58.24-266.368 137.216-388.352 64.085-102.955 155.648-197.248 268.715-269.056 109.568-72.405 242.517-122.112 387.669-137.856 3.925-0.384 8.149-0.555 12.288-0.555 35.328 0.128 67.328 14.635 90.368 37.845s37.248 55.339 37.12 90.496zM896 228.937v-128c0.043-11.947-4.651-22.613-12.373-30.379s-18.304-12.587-30.123-12.629c-134.357 14.336-254.336 59.349-352.555 124.245-103.595 65.835-185.984 150.912-243.285 242.944-72.405 111.787-113.28 233.856-124.757 351.488-1.024 11.435 2.731 22.443 9.771 30.891s17.195 14.080 28.928 15.147l131.755 0.213c11.563 0.128 21.632-4.011 29.312-10.923 7.253-6.571 12.288-15.616 13.781-25.941 6.059-45.739 17.408-90.325 32.299-129.067 3.456-9.216 3.413-19.072 0.427-28.075-2.091-6.187-5.589-11.989-10.325-16.853l-53.845-53.803c-13.824-13.824-16.171-34.731-6.912-51.243 67.584-118.827 163.797-211.499 272.256-272.128 16.939-9.472 37.632-6.144 50.987 7.083l54.187 54.187c7.083 6.997 16.085 10.965 25.515 11.904 6.485 0.64 13.227-0.213 19.584-2.56 43.605-16.256 88.32-27.136 129.451-32.171 10.283-1.451 19.712-7.083 26.24-15.147 6.272-7.723 9.856-17.579 9.643-29.099z" />
<glyph unicode="&#xe907;" glyph-name="menu-arrow" horiz-adv-x="1365" d="M1365.333 848.457h-1365.333v102.4h1365.333v-102.4zM1365.333 393.323h-1365.333v102.4h1365.333v-102.4zM1365.333-61.742h-1365.333v102.4h1365.333v-102.4z" />
<glyph unicode="&#xe908;" glyph-name="minus-icon" horiz-adv-x="6656" d="M0 566.857c0 212.078 171.922 384 384 384h5473.28c212.070 0 384-171.922 384-384 0-212.076-171.93-384-384-384h-5473.28c-212.078 0-384 171.924-384 384z" />
<glyph unicode="&#xe909;" glyph-name="rss" d="M305.835 89.885c0-25.887-7.675-51.186-22.056-72.711-14.38-21.518-34.818-38.291-58.731-48.196s-50.226-12.5-75.611-7.448c-25.386 5.052-48.704 17.517-67.006 35.82-18.302 18.295-30.766 41.615-35.815 67.004-5.050 25.382-2.458 51.698 7.447 75.612s26.679 44.353 48.2 58.73c21.521 14.377 46.823 22.057 72.706 22.057 34.708 0 67.994-13.79 92.537-38.332s38.33-57.829 38.33-92.535zM44.1 893.040v-169.847c202.672 0 397.044-80.512 540.355-223.823 143.309-143.311 223.823-337.683 223.823-540.353h169.847c-0.075 247.692-98.502 485.226-273.647 660.374-175.15 175.148-412.682 273.577-660.378 273.649zM44.1 553.277v-169.847c112.534-0.091 220.433-44.835 300.006-124.408s124.317-187.474 124.408-300.005h169.847c0.044 78.049-15.296 155.348-45.144 227.465s-73.62 137.649-128.811 192.84c-55.192 55.191-120.72 98.962-192.84 128.811s-149.415 45.188-227.467 45.144z" />
<glyph unicode="&#xe90a;" glyph-name="twitter" horiz-adv-x="1229" d="M1098.342 671.302c0.751-10.718 0.751-21.367 0.751-32.085 0.642-92.387-17.073-183.981-52.135-269.462-35.055-85.48-86.746-163.141-152.071-228.472s-142.985-117.036-228.46-152.098c-85.477-35.062-177.069-52.797-269.457-52.156-134.375-0.355-265.99 38.12-379.017 110.797 19.789-2.191 39.688-3.215 59.597-3.072 111.077-0.273 219.007 36.884 306.381 105.472-51.494 0.942-101.409 17.94-142.776 48.62-41.366 30.686-72.12 73.517-87.966 122.522 15.424-2.443 31.010-3.721 46.626-3.824 21.907 0.064 43.719 2.885 64.922 8.397-55.897 11.292-106.161 41.589-142.251 85.743s-55.779 99.441-55.722 156.467v3.072c34.195-19.086 72.416-29.822 111.548-31.334-52.361 34.954-89.412 88.568-103.595 149.905s-4.429 125.774 27.273 180.165c61.989-76.298 139.322-138.715 226.984-183.205s183.697-70.058 281.876-75.048c-3.837 18.506-5.782 37.353-5.803 56.252 0.048 49.503 14.966 97.85 42.82 138.773s67.362 72.534 113.394 90.736c46.032 18.202 96.474 22.155 144.787 11.347 48.305-10.808 92.256-35.88 126.143-71.964 55.255 10.648 108.25 30.814 156.604 59.597-18.398-57.023-56.969-105.375-108.476-135.988 49.015 5.586 96.925 18.471 142.131 38.229-33.785-49.188-75.626-92.324-123.767-127.59l-0.341 0.205z" />
<glyph unicode="&#xe90b;" glyph-name="up-arrow" horiz-adv-x="1707" d="M872.136 950.784l789.603-770.344c50.594-49.367 51.601-130.405 2.234-181.006-49.365-50.601-130.405-51.601-181.006-2.234l-609.864 594.988-602.829-594.505c-50.333-49.638-131.377-49.075-181.015 1.258s-49.075 131.377 1.258 181.016l781.618 770.827z" />
<glyph unicode="&#xe90c;" glyph-name="copyright" d="M413.696 497.225c2.389 15.639 7.593 30.715 15.36 44.497 7.298 12.925 17.695 23.833 30.255 31.744 14.183 8.011 30.259 12.063 46.545 11.729 11.050-0.304 21.956-2.574 32.209-6.703 10.020-4.382 19.070-10.71 26.624-18.618 7.257-8.043 13.139-17.226 17.408-27.183 4.43-10.374 6.862-21.492 7.168-32.768h91.601c-0.649 22.698-5.51 45.079-14.336 66.001-8.247 19.541-20.449 37.164-35.84 51.759-16.057 14.755-34.84 26.233-55.296 33.792-22.812 8.276-46.952 12.283-71.215 11.823-29.95 0.785-59.695-5.164-87.040-17.408-23.721-10.947-44.709-27.038-61.44-47.104-16.791-20.461-29.181-44.166-36.399-69.632-8.038-27.206-12.175-55.414-12.288-83.782v-13.777c-0.040-28.346 3.941-56.554 11.823-83.782 7.087-25.331 19.461-48.872 36.305-69.073 16.762-19.893 37.752-35.794 61.44-46.545 27.421-12.005 57.111-17.942 87.040-17.408 23.049-0.074 45.929 3.928 67.584 11.823 20.258 7.239 39.005 18.158 55.296 32.209 15.68 13.386 28.557 29.743 37.888 48.128 9.452 18.25 14.699 38.384 15.36 58.927h-91.508c-0.41-10.328-3.012-20.45-7.633-29.696-4.562-9.021-10.894-17.030-18.618-23.552-7.808-6.78-16.846-11.995-26.624-15.36-9.916-3.274-20.278-5.002-30.72-5.12-16.003-0.333-31.788 3.758-45.615 11.823-12.525 7.922-22.889 18.829-30.161 31.744-7.772 13.979-12.975 29.24-15.36 45.056-2.635 16.942-4.004 34.055-4.096 51.2v13.498c0.048 17.332 1.418 34.634 4.096 51.759h0.186zM512 950.857c-101.263 0-200.253-30.028-284.451-86.288s-149.823-136.223-188.575-229.778c-38.752-93.555-48.891-196.502-29.136-295.821s68.519-190.548 140.124-262.152c71.604-71.606 162.834-120.367 262.152-140.121s202.264-9.616 295.82 29.137c93.556 38.744 173.52 104.373 229.78 188.571 56.255 84.198 86.286 183.188 86.286 284.452 0 135.791-53.946 266.020-149.961 362.039-96.019 96.018-226.248 149.961-362.039 149.961zM512 29.257c-81.011 0-160.203 24.023-227.562 69.030s-119.857 108.979-150.859 183.823c-31.001 74.845-39.113 157.202-23.308 236.657s54.815 152.438 112.098 209.722c57.283 57.283 130.268 96.294 209.722 112.099s161.812 7.693 236.657-23.309c74.844-31.002 138.815-83.501 183.823-150.859s69.030-146.55 69.030-227.562c-0.147-108.588-43.349-212.685-120.132-289.468s-180.88-119.984-289.468-120.132z" />
<glyph unicode="&#xe90d;" glyph-name="angel-next" horiz-adv-x="614" d="M22.873 928.739c30.2 29.783 78.826 29.445 108.609-0.755l462.497-468.972-462.206-473.761c-29.62-30.361-78.243-30.961-108.604-1.341-30.36 29.62-30.96 78.244-1.341 108.603l356.994 365.919-356.704 361.697c-29.783 30.2-29.445 78.826 0.755 108.609z" />
<glyph unicode="&#xe90e;" glyph-name="angel-prev" horiz-adv-x="614" d="M570.853 897.285c30.361-29.62 30.961-78.243 1.34-108.603l-356.993-365.918 356.703-361.698c29.783-30.2 29.445-78.825-0.755-108.609-30.2-29.788-78.826-29.44-108.61 0.755l-462.496 468.972 462.206 473.761c29.62 30.36 78.243 30.961 108.603 1.341z" />
<glyph unicode="&#xe90f;" glyph-name="close-filter" d="M67.039 882.032c36.994 37.98 97.772 38.78 135.753 1.786l317.019-308.784 317.010 308.782c37.98 36.994 98.76 36.195 135.753-1.785 36.995-37.98 36.196-98.758-1.784-135.753l-323.633-315.231 323.633-315.231c37.98-36.995 38.779-97.773 1.784-135.753-36.993-37.98-97.773-38.78-135.753-1.786l-317.012 308.783-317.016-308.782c-37.98-36.993-98.759-36.193-135.753 1.787s-36.194 98.758 1.786 135.753l323.637 315.229-323.637 315.231c-37.98 36.995-38.78 97.773-1.786 135.753z" />
<glyph unicode="&#xe910;" glyph-name="information" horiz-adv-x="717" d="M204.8-21.943c0-13.578 5.394-26.604 14.996-36.204s22.625-14.996 36.204-14.996h204.8c13.579 0 26.602 5.396 36.204 14.996s14.996 22.625 14.996 36.204v51.2h-307.2v-51.2zM358.4 950.857c-76.238-0.071-150.467-24.451-211.9-69.597s-106.87-108.706-129.707-181.443c-22.837-72.737-21.885-150.861 2.717-223.020 24.603-72.157 71.575-134.59 134.090-178.228v-115.712c0-13.578 5.394-26.604 14.996-36.204s22.625-14.996 36.204-14.996h307.2c13.578 0 26.604 5.396 36.204 14.996s14.996 22.625 14.996 36.204v115.712c62.515 43.638 109.486 106.071 134.088 178.228 24.607 72.159 25.559 150.283 2.719 223.020-22.835 72.737-68.275 136.296-129.705 181.443-61.435 45.146-135.664 69.526-211.901 69.597zM504.32 382.537l-43.52-30.72v-117.76h-204.8v117.76l-43.52 30.72c-44.812 31.089-78.524 75.674-96.224 127.26s-18.462 107.479-2.175 159.529c16.287 52.050 48.771 97.539 92.719 129.836s97.061 49.715 151.6 49.715c54.539 0 107.653-17.418 151.6-49.715s76.429-77.786 92.716-129.836c16.287-52.050 15.529-107.942-2.171-159.529s-51.415-96.172-96.225-127.26z" />
<glyph unicode="&#xe911;" glyph-name="filter-outline" horiz-adv-x="1161" d="M4.755 921.205c8.389 18.082 26.511 29.652 46.445 29.652h1011.303c19.934 0 38.052-11.569 46.442-29.65s5.523-39.388-7.345-54.61l-392.376-464.030v-413.041c0-17.743-9.189-34.222-24.282-43.554-15.090-9.325-33.937-10.179-49.809-2.246l-202.274 101.103c-17.349 8.677-28.309 26.406-28.309 45.8v311.936l-392.442 464.030c-12.872 15.22-15.741 36.528-7.351 54.61zM161.556 848.457l333.285-394.082c7.817-9.243 12.106-20.957 12.106-33.062v-299.035l99.874-49.923v348.959c0 12.104 4.289 23.817 12.104 33.059l333.231 394.085h-790.6z" />
<glyph unicode="&#xe912;" glyph-name="close-large" d="M154.603 932.7c9.973 10.022 26.182 10.061 36.204 0.088l324.859-323.275 321.567 323.185c9.974 10.022 26.184 10.063 36.205 0.091s10.063-26.181 0.092-36.204l-323.236-324.862 323.178-321.604c10.022-9.97 10.063-26.18 0.089-36.202-9.97-10.022-26.18-10.063-36.202-0.089l-324.861 323.277-321.603-323.188c-9.973-10.022-26.182-10.063-36.204-0.089s-10.062 26.18-0.089 36.205l323.268 324.857-323.179 321.604c-10.022 9.973-10.061 26.182-0.088 36.204z" />
<glyph unicode="&#xe913;" glyph-name="cart-large" horiz-adv-x="789" d="M704.277 759.722h-626.688c-9.279 0-18.211-3.534-24.978-9.882s-10.864-15.036-11.457-24.296l-40.851-639.135c-1.272-19.926 1.553-39.894 8.301-58.679 6.749-18.793 17.277-35.991 30.935-50.554 13.658-14.554 30.156-26.162 48.475-34.094s38.068-12.028 58.031-12.028h493.333c20.031 0 39.848 4.121 58.219 12.103 18.371 7.991 34.902 19.666 48.566 34.312s24.171 31.945 30.864 50.831c6.693 18.877 9.432 38.929 8.044 58.914l-44.368 638.531c-0.64 9.224-4.756 17.861-11.517 24.167s-15.664 9.813-24.91 9.809zM393.367 925.673l0.053-0.001c0.249-0.006 0.664-0.018 1.235-0.045 1.141-0.055 2.901-0.169 5.191-0.406 4.583-0.476 11.261-1.443 19.335-3.408 16.163-3.934 37.737-11.821 59.304-27.611 42.517-31.127 87.595-94.921 87.595-227.722 0-6.953 5.637-12.59 12.59-12.59s12.59 5.637 12.59 12.59c0 139.163-47.67 211.264-97.9 248.039-24.807 18.162-49.607 27.228-68.224 31.76-9.318 2.268-17.13 3.411-22.692 3.988-2.782 0.289-5.008 0.436-6.584 0.512-0.788 0.038-1.415 0.058-1.868 0.068-0.227 0.005-0.41 0.008-0.549 0.009l-0.175 0.001h-0.086c-0.011 0-0.020 0-0.008-12.59l-0.012 12.59c-0.176 0-0.352-0.004-0.528-0.012-97.972-4.2-147.271-78.494-171.698-147.152-12.304-34.583-18.742-68.756-22.115-94.179-1.69-12.74-2.621-23.356-3.13-30.818-0.254-3.733-0.404-6.682-0.489-8.719-0.043-1.018-0.071-1.81-0.087-2.357l-0.018-0.636-0.004-0.178-0.001-0.053-0.001-0.018c0-0.006 0-0.011 12.588-0.257l-12.588 0.246c-0.136-6.952 5.39-12.698 12.342-12.834s12.695 5.387 12.834 12.337l0.001 0.019 0.003 0.109 0.013 0.496c0.014 0.452 0.038 1.145 0.076 2.062 0.078 1.835 0.215 4.567 0.454 8.069 0.478 7.008 1.359 17.083 2.969 29.218 3.229 24.328 9.35 56.653 20.878 89.051 23.202 65.213 66.562 126.731 148.707 130.42z" />
<glyph unicode="&#xe914;" glyph-name="plus" d="M492.3 950.857c20.197 0 36.571-16.374 36.571-36.571v-224.061h224.012c20.197 0 36.571-16.374 36.571-36.571s-16.374-36.571-36.571-36.571h-224.012v-224.061c0-20.197-16.374-36.571-36.571-36.571s-36.571 16.374-36.571 36.571v224.061h-224.11c-20.198 0-36.571 16.374-36.571 36.571s16.374 36.571 36.571 36.571h224.11v224.061c0 20.198 16.374 36.571 36.571 36.571z" />
<glyph unicode="&#xe915;" glyph-name="gift" horiz-adv-x="1138" d="M341.333 851.301c-18.86 0-36.947-7.492-50.283-20.828s-20.828-31.423-20.828-50.283c0-18.86 7.492-36.947 20.828-50.283s31.423-20.828 50.283-20.828h147.654c-5.804 15.638-13.356 33.187-22.906 50.549-28.791 52.348-68.83 91.673-124.748 91.673zM526.222 623.746h-426.667v-142.222h426.667v142.222zM526.222 396.19h-312.889v-369.778h312.889v369.778zM611.556 26.413h312.889v369.778h-312.889v-369.778zM170.667-58.921c-23.564 0-42.667 19.103-42.667 42.667v412.444h-71.111c-23.564 0-42.667 19.103-42.667 42.667v227.556c0 23.564 19.102 42.667 42.667 42.667h145.096c-11.134 21.82-17.096 46.158-17.096 71.111 0 41.492 16.482 81.284 45.822 110.623s69.131 45.822 110.623 45.822c103.371 0 165.732-74.453 199.518-135.883 6.278-11.414 11.81-22.777 16.659-33.723 4.85 10.947 10.382 22.309 16.657 33.723 33.786 61.43 96.148 135.883 199.521 135.883 41.489 0 81.283-16.482 110.62-45.822 29.343-29.339 45.824-69.131 45.824-110.623 0-24.953-5.962-49.291-17.095-71.111h167.851c23.563 0 42.667-19.103 42.667-42.667v-227.556c0-23.564-19.103-42.667-42.667-42.667h-71.111v-412.444c0-23.563-19.103-42.667-42.667-42.667h-796.444zM611.556 481.524h426.667v142.222h-426.667v-142.222zM626.034 709.079h147.655c18.859 0 36.949 7.492 50.284 20.828s20.827 31.423 20.827 50.283c0 18.86-7.492 36.947-20.827 50.283s-31.425 20.828-50.284 20.828c-55.916 0-95.954-39.325-124.746-91.673-9.552-17.362-17.106-34.912-22.909-50.549z" />
<glyph unicode="&#xe916;" glyph-name="lock" horiz-adv-x="910" d="M133.689 455.924c-12.824 0-25.124-5.094-34.192-14.163s-14.163-21.368-14.163-34.192v-318.578c0-6.349 1.251-12.641 3.681-18.506s5.992-11.196 10.482-15.684c4.49-4.494 9.821-8.055 15.688-10.485s12.154-3.681 18.505-3.681h637.156c6.349 0 12.641 1.252 18.506 3.681s11.196 5.99 15.684 10.485c4.494 4.489 8.055 9.819 10.485 15.684s3.681 12.157 3.681 18.506v318.578c0 12.825-5.097 25.124-14.165 34.192s-21.367 14.163-34.19 14.163h-637.156zM39.157 502.1c25.072 25.072 59.076 39.157 94.532 39.157h637.156c35.459 0 69.461-14.085 94.532-39.157s39.157-59.076 39.157-94.532v-318.578c0-17.556-3.459-34.941-10.177-51.16s-16.566-30.959-28.979-43.372c-12.413-12.413-27.153-22.261-43.372-28.979s-33.604-10.177-51.16-10.177h-637.156c-17.556 0-34.941 3.459-51.161 10.177s-30.957 16.566-43.372 28.979c-12.414 12.413-22.262 27.153-28.98 43.372s-10.176 33.604-10.176 51.16v318.578c0 35.457 14.085 69.461 39.157 94.532zM452.267 865.524c-49.035 0-96.063-19.479-130.736-54.153s-54.153-81.701-54.153-130.736v-182.044c0-23.564-19.103-42.667-42.667-42.667s-42.667 19.103-42.667 42.667v182.044c0 71.667 28.469 140.4 79.146 191.076s119.409 79.146 191.076 79.146c71.667 0 140.402-28.47 191.078-79.146s79.144-119.409 79.144-191.076v-182.044c0-23.564-19.103-42.667-42.667-42.667s-42.667 19.103-42.667 42.667v182.044c0 49.035-19.479 96.063-54.153 130.736s-81.701 54.153-130.736 54.153z" />
<glyph unicode="&#xe917;" glyph-name="size-guide" d="M819.14 860.522c-8.385 0-16.685-1.685-24.407-4.956s-14.709-8.061-20.546-14.085l-0.139-0.143-636.307-651.101-30.766-125.651 121.115 30.967 635.999 650.488c0.024 0.023 0.042 0.046 0.066 0.069 12.348 12.789 19.251 29.874 19.251 47.655 0 17.81-6.927 34.921-19.311 47.717zM759.489 938.762c18.872 7.993 39.159 12.112 59.651 12.112s40.779-4.119 59.651-12.112c18.872-7.993 35.942-19.698 50.2-34.418l0.006-0.007c28.708-29.65 44.761-69.303 44.761-110.574s-16.053-80.924-44.761-110.574l-0.151-0.158v0.001l-645.001-659.696c-5.787-5.921-13.090-10.138-21.111-12.186l-206.366-52.766c-15.378-3.933-31.692 0.494-42.973 11.662s-15.874 27.431-12.099 42.851l51.622 210.824c1.923 7.855 5.919 15.047 11.571 20.829l644.8 659.794c0.024 0.026 0.048 0.052 0.072 0.078 14.246 14.684 31.292 26.361 50.128 34.34zM819.14 860.522c8.385 0 16.685-1.685 24.407-4.956zM843.547 855.565c7.722-3.27 14.703-8.057 20.54-14.078zM464.414 2.151c0 24.949 20.226 45.176 45.176 45.176h464.414c24.949 0 45.176-20.227 45.176-45.176s-20.227-45.176-45.176-45.176h-464.414c-24.95 0-45.176 20.227-45.176 45.176z" />
<glyph unicode="&#xe918;" glyph-name="share" horiz-adv-x="960" d="M757.235 838.857c-17.926 0-35.462-5.327-50.387-15.318-14.925-9.992-26.573-24.204-33.453-40.849s-8.685-34.968-5.178-52.646c3.514-17.677 12.173-33.901 24.87-46.627 12.704-12.724 28.87-21.379 46.458-24.884s35.821-1.707 52.397 5.171c16.57 6.879 30.752 18.534 40.736 33.505 9.984 14.973 15.322 32.586 15.322 50.612 0 24.173-9.587 47.339-26.618 64.404-17.030 17.062-40.102 26.63-64.147 26.63zM653.44 903.312c30.714 20.564 66.835 31.545 103.795 31.545 49.562 0 97.075-19.728 132.096-54.814 35.014-35.083 54.669-82.646 54.669-132.22 0-36.972-10.944-73.12-31.45-103.875-20.512-30.756-49.677-54.742-83.814-68.909s-71.706-17.876-107.955-10.653c-36.243 7.224-69.523 25.053-95.639 51.217-4.989 4.999-9.674 10.259-14.038 15.751l-244.28-142.834c4.412-16.042 6.703-32.735 6.703-49.662 0-16.861-2.275-33.551-6.697-49.636l244.396-142.709c11.924 14.976 26.139 28.109 42.214 38.867 30.714 20.563 66.835 31.548 103.795 31.548 49.562 0 97.075-19.727 132.096-54.812 35.014-35.085 54.669-82.65 54.669-132.224 0-36.973-10.944-73.12-31.45-103.872-20.512-30.758-49.677-54.746-83.814-68.909-34.138-14.17-71.706-17.882-107.955-10.656-36.243 7.226-69.523 25.056-95.639 51.219-26.113 26.163-43.885 59.482-51.084 95.75-4.241 21.357-4.701 43.181-1.477 64.486l-254.084 148.365c-17.18-17.12-37.613-30.816-60.231-40.205-34.138-14.163-71.708-17.875-107.955-10.65s-69.528 25.050-95.642 51.219c-26.112 26.161-43.884 59.483-51.084 95.747-7.199 36.262-3.505 73.851 10.619 108.015 14.124 34.166 38.049 63.382 68.764 83.945 30.716 20.564 66.837 31.545 103.796 31.545 49.384 0 96.734-19.586 131.715-54.434l254.070 148.559c-5.037 33.548-0.874 67.9 12.128 99.351 14.124 34.165 38.049 63.382 68.764 83.945zM263.826 486.952c-3.64 5.869-7.964 11.347-12.916 16.308-17.028 17.062-40.104 26.63-64.147 26.63-17.93 0-35.466-5.327-50.389-15.318-14.925-9.992-26.572-24.204-33.453-40.849s-8.684-34.968-5.174-52.645c3.509-17.677 12.169-33.901 24.869-46.627 12.7-12.724 28.868-21.379 46.457-24.884s35.82-1.707 52.393 5.171c16.574 6.879 30.756 18.534 40.74 33.506 0.554 0.831 1.094 1.67 1.62 2.517 0.396 0.769 0.813 1.532 1.255 2.287 0.421 0.721 0.858 1.427 1.31 2.118 7.284 13.354 11.135 28.373 11.135 43.69 0 15.414-3.897 30.417-11.136 43.692-0.447 0.682-0.879 1.38-1.295 2.092-0.447 0.764-0.87 1.535-1.27 2.312zM757.235 220.924c-17.926 0-35.462-5.325-50.387-15.315s-26.573-24.205-33.453-40.851c-6.88-16.646-8.685-34.97-5.178-52.646 3.514-17.677 12.173-33.901 24.87-46.624 12.704-12.723 28.87-21.382 46.458-24.883 17.587-3.507 35.821-1.709 52.397 5.171 16.57 6.88 30.752 18.534 40.736 33.504 9.984 14.976 15.322 32.589 15.322 50.611 0 24.173-9.587 47.341-26.618 64.403s-40.102 26.63-64.147 26.63z" />
<glyph unicode="&#xe919;" glyph-name="filter-checked" horiz-adv-x="1280" d="M1227.69 882.935c37.491-37.49 37.491-98.274 0-135.764l-704-704c-37.49-37.491-98.273-37.491-135.764 0l-319.999 320c-37.49 37.49-37.49 98.273 0 135.764s98.274 37.49 135.764 0l252.118-252.118 636.118 636.117c37.491 37.49 98.275 37.49 135.764 0z" />
<glyph unicode="&#xe91a;" glyph-name="review-star" horiz-adv-x="1092" d="M1076.702 559.757l-371.985 54.067-166.366 337.033-166.366-337.101-371.985-54.067 269.175-262.349-63.556-370.483 332.732 174.899 332.732-174.899-63.556 370.483 269.175 262.417z" />
<glyph unicode="&#xe91b;" glyph-name="radio-button-checked" d="M512 670.857c-128.131 0-232-103.869-232-232s103.869-232 232-232c128.131 0 232 103.869 232 232v0c-0.033 128.115-103.885 231.967-231.997 232h-0.003zM512 902.857c-256.262 0-464-207.738-464-464s207.738-464 464-464c256.262 0 464 207.738 464 464v0c0 256.262-207.738 464-464 464v0zM512 67.657c-205.006 0-371.2 166.194-371.2 371.2s166.194 371.2 371.2 371.2c205.006 0 371.2-166.194 371.2-371.2v0c0-205.006-166.194-371.2-371.2-371.2v0z" />
<glyph unicode="&#xe91c;" glyph-name="radio-button" d="M512 902.857c-256.262 0-464-207.738-464-464s207.738-464 464-464c256.262 0 464 207.738 464 464v0c0 256.262-207.738 464-464 464v0zM512 67.657c-205.006 0-371.2 166.194-371.2 371.2s166.194 371.2 371.2 371.2c205.006 0 371.2-166.194 371.2-371.2v0c0-205.006-166.194-371.2-371.2-371.2v0z" />
<glyph unicode="&#xe91d;" glyph-name="checkbox-checked" d="M1024-73.143h-1024v1024h1024v-1024zM102.4 29.257h819.2v819.2h-819.2v-819.2zM409.6 145.31c-13.653 0-27.307 6.827-34.133 13.653l-170.667 177.493c-20.48 20.48-20.48 54.613 0 75.093s54.613 20.48 75.093 0l136.533-136.533 341.333 341.333c20.48 20.48 54.613 20.48 75.093 0s20.48-54.613 0-75.093l-375.467-375.467c-20.48-13.653-34.133-20.48-47.787-20.48z" />
<glyph unicode="&#xe91e;" glyph-name="checkbox" d="M1024-73.143h-1024v1024h1024v-1024zM102.4 29.257h819.2v819.2h-819.2v-819.2z" />
<glyph unicode="&#xe91f;" glyph-name="minus-faq" horiz-adv-x="2389" d="M0 950.857h2389.333v-1024h-2389.333z" />
<glyph unicode="&#xe920;" glyph-name="plus-faq" d="M0 568.188h363.827v382.669h296.346v-382.669h363.827v-258.56h-363.827v-382.771h-296.346v382.669h-363.827z" />
<glyph unicode="&#xe921;" glyph-name="send-email" d="M539.089 868.525c52.782 52.749 124.351 82.382 198.976 82.382 74.656 0 146.248-29.656 199.038-82.444s82.446-124.385 82.446-199.039c0-74.654-29.655-146.25-82.446-199.038l-127.911-127.914c-0.007-0.006 0 0.005 0 0-28.529-28.545-62.88-50.64-100.693-64.75-37.82-14.112-78.232-19.928-118.495-17.048s-79.436 14.391-114.86 33.744c-35.424 19.354-66.271 46.1-90.448 78.425-22.581 30.192-16.412 72.974 13.78 95.556s72.974 16.412 95.555-13.78c12.449-16.645 28.333-30.417 46.574-40.382s38.411-15.891 59.143-17.375c20.733-1.483 41.541 1.51 61.015 8.777s37.155 18.637 51.846 33.341l127.952 127.949c27.184 27.183 42.455 64.052 42.455 102.495s-15.271 75.312-42.455 102.495c-27.184 27.184-64.055 42.455-102.496 42.455s-75.312-15.271-102.496-42.455l-0.113-0.112-73.318-72.977c-26.722-26.597-69.946-26.497-96.543 0.225s-26.496 69.945 0.225 96.543l73.206 72.864c0.021 0.021 0.042 0.042 0.063 0.063zM340.829 635.005c37.818 14.113 78.23 19.926 118.494 17.046s79.436-14.389 114.859-33.741c35.424-19.354 66.271-46.1 90.448-78.425 22.583-30.192 16.412-72.974-13.78-95.555s-72.974-16.412-95.555 13.78c-12.449 16.645-28.333 30.417-46.573 40.382s-38.411 15.89-59.144 17.374c-20.732 1.483-41.541-1.51-61.014-8.777s-37.156-18.637-51.849-33.34l-127.949-127.949c-13.464-13.461-24.149-29.447-31.437-47.035s-11.040-36.437-11.042-55.477c-0.002-19.040 3.746-37.895 11.029-55.48 7.284-17.592 17.961-33.574 31.421-47.036 13.461-13.469 29.441-24.146 47.030-31.437 17.588-7.284 36.44-11.039 55.478-11.039s37.89 3.748 55.48 11.032c17.578 7.277 33.552 17.94 47.010 31.389 0.009 0.014-0.009-0.007 0 0l72.885 73.025c26.635 26.685 69.859 26.726 96.543 0.089 26.685-26.631 26.725-69.857 0.091-96.543l-72.96-73.093c-26.143-26.139-57.179-46.872-91.334-61.017s-70.762-21.422-107.731-21.415c-36.968 0.007-73.574 7.291-107.726 21.443s-65.183 34.891-91.32 61.030c-26.137 26.146-46.87 57.18-61.013 91.334s-21.42 70.765-21.416 107.732c0.004 36.968 7.29 73.574 21.441 107.726 14.15 34.15 34.887 65.179 61.028 91.316zM112.223 442.342l127.914 127.914c0.006 0.005-0.006-0.006 0 0 28.529 28.545 62.881 50.639 100.692 64.749z" />
<glyph unicode="&#xe922;" glyph-name="account-icon" d="M579.306 866.034c-21.351 8.839-44.236 13.386-67.343 13.381-34.796-0.006-68.808-10.333-97.735-29.67s-51.472-46.817-64.782-78.966c-13.311-32.15-16.789-67.523-9.995-101.649s23.552-65.472 48.16-90.073c24.607-24.601 55.956-41.354 90.082-48.138s69.502-3.299 101.645 10.019c32.149 13.318 59.621 35.867 78.952 64.8s29.649 62.946 29.649 97.74c0 23.106-4.553 45.989-13.397 67.337s-21.806 40.746-38.145 57.083c-16.344 16.337-35.744 29.297-57.092 38.136zM511.946 950.856c32.49 0.006 64.663-6.386 94.683-18.815s57.301-30.65 80.276-53.622c22.976-22.972 41.202-50.246 53.638-80.262s18.836-62.19 18.836-94.681c0-48.925-14.508-96.751-41.688-137.43-27.177-40.68-65.813-72.386-111.011-91.113s-94.935-23.627-142.92-14.087c-47.986 9.54-92.064 33.096-126.663 67.687s-58.164 78.665-67.715 126.648c-9.551 47.983-4.66 97.721 14.054 142.924s50.414 83.843 91.088 111.031c40.673 27.189 88.497 41.707 137.421 41.718zM125.372 243.377c46.392 46.394 109.314 72.458 174.924 72.458h423.355c0.005 0 0 0 0 0 32.491 0.005 64.669-6.387 94.684-18.813 30.020-12.431 57.301-30.654 80.276-53.625s41.202-50.243 53.638-80.262c12.436-30.015 18.836-62.187 18.836-94.68v-105.877c0-19.727-15.993-35.722-35.722-35.722s-35.722 15.993-35.722 35.722v105.877c0 23.109-4.553 45.989-13.397 67.336-8.844 21.351-21.806 40.746-38.145 57.082-16.341 16.341-35.744 29.301-57.092 38.141-21.351 8.835-44.236 13.383-67.342 13.379h-423.374c-46.661 0-91.412-18.536-124.406-51.529-32.995-32.997-51.531-77.748-51.531-124.408v-105.829c0-19.727-15.992-35.722-35.722-35.722s-35.722 15.993-35.722 35.722v105.829c0 65.607 26.063 128.529 72.456 174.924z" />
<glyph unicode="&#xe923;" glyph-name="arrow" d="M512.074 950.857c282.738-0.042 511.926-229.256 511.926-512 0-282.77-229.23-512-512-512-282.744 0-511.958 229.188-512 511.923v0.003c0 0.044 0 0.096 0 0.148 0 282.729 229.197 511.926 511.926 511.926 0.052 0 0.104 0 0.156 0h-0.009zM272.461 348.061h239.612v-146.381c0.007-13.693 11.109-24.79 24.803-24.79 6.828 0 13.011 2.759 17.496 7.222l-0.001-0.001 236.217 237.176c4.494 4.456 7.276 10.632 7.276 17.458s-2.782 13.002-7.275 17.456l-0.002 0.002-236.217 237.398c-4.484 4.463-10.667 7.221-17.495 7.221-13.694 0-24.795-11.097-24.803-24.789v-146.308h-239.612c-13.681-0.042-24.761-11.121-24.803-24.799v-132.138c0.084-13.65 11.147-24.687 24.799-24.729h0.004z" />
<glyph unicode="&#xe924;" glyph-name="arrow-left-thin1" horiz-adv-x="585" d="M505.386 940.145c-14.282 14.282-37.437 14.282-51.719 0l-442.953-442.953c-14.282-14.282-14.282-37.437 0-51.719l442.953-442.957c14.282-14.277 37.437-14.277 51.719 0 14.283 14.285 14.283 37.442 0 51.727l-417.093 417.090 417.093 417.093c14.283 14.282 14.283 37.438 0 51.72z" />
<glyph unicode="&#xe925;" glyph-name="arrow-right" horiz-adv-x="614" d="M54.338 896.825c29.992 29.992 78.619 29.992 108.611 0l399.36-399.36c29.993-29.993 29.993-78.62 0-108.612l-399.36-399.36c-29.992-29.993-78.619-29.993-108.611 0-29.992 29.992-29.992 78.619 0 108.612l345.054 345.054-345.054 345.054c-29.992 29.992-29.992 78.619 0 108.611z" />
<glyph unicode="&#xe926;" glyph-name="arrow-right-thin1" horiz-adv-x="585" d="M10.712 940.145c14.282 14.282 37.438 14.282 51.72 0l442.953-442.953c14.283-14.282 14.283-37.437 0-51.719l-442.953-442.957c-14.282-14.277-37.438-14.277-51.72 0-14.282 14.285-14.282 37.442 0 51.727l417.093 417.090-417.093 417.093c-14.282 14.282-14.282 37.438 0 51.72z" />
<glyph unicode="&#xe927;" glyph-name="checkout-shipping" horiz-adv-x="924" d="M674.221 528.112c-4.763 0-14.288 0-19.051 4.763l-428.651 247.665c-19.051 9.526-23.814 33.34-14.288 47.628 9.526 19.051 33.34 23.814 47.628 14.288l428.651-247.665c19.051-9.526 23.814-33.34 14.288-47.628 0-14.288-14.288-19.051-28.577-19.051zM464.658-72c-23.814 0-42.865 4.763-66.679 19.051l-333.395 190.512c-38.102 23.814-66.679 66.679-66.679 114.307v376.26c0 47.628 23.814 90.493 66.679 114.307l333.395 190.512c38.102 23.814 90.493 23.814 128.595 0l333.395-190.512c42.865-23.814 66.679-66.679 66.679-114.307v-376.26c0 0 0-4.763 0-4.763 0-47.628-23.814-90.493-66.679-114.307l-333.395-190.512c-19.051-4.763-42.865-14.288-61.916-14.288zM464.658 875.795c-9.526 0-19.051-4.763-28.577-9.526l-333.395-190.512c-19.051-4.763-28.577-23.814-33.34-47.628v-381.023c0-19.051 9.526-42.865 28.577-52.391l333.395-190.512c19.051-9.526 42.865-9.526 57.153 0l333.395 190.512c19.051 9.526 28.577 28.577 28.577 47.628 0 0 0 4.763 0 4.763v381.023c0 19.051-9.526 42.865-28.577 52.391l-333.395 190.512c-4.763 4.763-14.288 4.763-23.814 4.763zM464.658 404.279c-4.763 0-14.288 0-19.051 4.763l-414.363 238.14c-19.051 9.526-23.814 33.34-14.288 47.628 9.526 19.051 33.34 23.814 47.628 14.288l395.312-228.614 395.312 228.614c19.051 9.526 38.102 4.763 47.628-14.288s4.763-38.102-14.288-47.628l-414.363-238.14c0-4.763-4.763-4.763-9.526-4.763zM464.658-76.763c-19.051 0-38.102 14.288-38.102 38.102v476.279c0 19.051 14.288 38.102 38.102 38.102s38.102-14.288 38.102-38.102v-476.279c-4.763-19.051-19.051-38.102-38.102-38.102z" />
<glyph unicode="&#xe928;" glyph-name="feather-mail" horiz-adv-x="1325" d="M196.85 950.857h903.722c45.833-0.146 89.745-18.418 122.157-50.828 32.407-32.409 50.682-76.324 50.827-122.157v-678.031c-0.145-45.833-18.42-89.745-50.827-122.157-32.413-32.407-76.324-50.682-122.157-50.827h-903.914c-45.834 0.145-89.748 18.42-122.157 50.827-32.409 32.413-50.681 76.324-50.827 122.157v678.032c0.146 45.834 18.418 89.748 50.827 122.157s76.324 50.681 122.157 50.827h0.192zM196.963 830.386c-13.988-0.065-27.385-5.65-37.278-15.543-3.266-3.267-6.063-6.915-8.346-10.841l497.274-348.118 497.272 348.118c-2.283 3.926-5.078 7.574-8.343 10.841-9.897 9.892-23.293 15.477-37.28 15.543h-903.301zM1153.084 661.984l-469.926-328.973c-20.739-14.523-48.351-14.523-69.090 0l-469.925 328.973v-561.836c0.065-13.987 5.65-27.383 15.542-37.28 9.894-9.891 23.292-15.474 37.281-15.541h903.291c13.993 0.066 27.389 5.65 37.286 15.541 9.891 9.891 15.474 23.287 15.541 37.274v561.842z" />
<glyph unicode="&#xe929;" glyph-name="instagram" d="M273.067 882.59c-54.316 0-106.408-21.577-144.815-59.985s-59.985-90.499-59.985-144.815v-477.867c0-54.316 21.577-106.407 59.985-144.814 38.408-38.41 90.499-59.986 144.815-59.986h477.867c54.316 0 106.407 21.576 144.814 59.986 38.41 38.407 59.986 90.498 59.986 144.814v477.867c0 54.316-21.576 106.408-59.986 144.815-38.407 38.408-90.498 59.985-144.814 59.985h-477.867zM79.98 870.877c51.21 51.21 120.665 79.98 193.087 79.98h477.867c72.421 0 141.879-28.769 193.089-79.98 51.207-51.21 79.978-120.665 79.978-193.087v-477.867c0-72.421-28.771-141.879-79.978-193.089-51.21-51.207-120.668-79.978-193.089-79.978h-477.867c-72.422 0-141.877 28.771-193.087 79.978-51.21 51.21-79.98 120.668-79.98 193.089v477.867c0 72.422 28.769 141.877 79.98 193.087zM535.054 581.835c-29.614 4.39-59.86-0.669-86.432-14.459s-48.121-35.608-61.58-62.348c-13.462-26.743-18.145-57.047-13.387-86.607 4.755-29.556 18.712-56.863 39.881-78.032 21.166-21.166 48.473-35.123 78.032-39.878 29.556-4.758 59.86-0.075 86.603 13.387 26.74 13.459 48.558 35.007 62.348 61.58s18.848 56.818 14.459 86.432c-4.478 30.208-18.555 58.177-40.151 79.773s-49.565 35.673-79.773 40.151zM417.178 627.97c39.318 20.403 84.067 27.889 127.884 21.394 44.701-6.626 86.084-27.454 118.036-59.409 31.956-31.952 52.784-73.335 59.409-118.036 6.496-43.817-0.99-88.566-21.395-127.884-20.401-39.318-52.685-71.202-92.252-91.116-39.567-19.917-84.405-26.846-128.14-19.808-43.735 7.035-84.135 27.686-115.459 59.006-31.321 31.324-51.97 71.724-59.008 115.459s-0.107 88.573 19.808 128.14c19.915 39.567 51.799 71.851 91.117 92.253z" />
<glyph unicode="&#xe92a;" glyph-name="minus-large" horiz-adv-x="5803" d="M5802.667 438.857c0-282.771-229.239-512-512-512h-4778.667c-282.77 0-512 229.229-512 512s229.23 512 512 512h4778.667c282.761 0 512-229.23 512-512z" />
<glyph unicode="&#xe92b;" glyph-name="plus-large" d="M512 950.857c49.901 0 90.353-40.452 90.353-90.353v-301.176h331.294c49.899 0 90.353-40.452 90.353-90.353s-40.454-90.353-90.353-90.353h-331.294v-361.412c0-49.899-40.452-90.353-90.353-90.353s-90.353 40.454-90.353 90.353v361.412h-331.294c-49.901 0-90.353 40.452-90.353 90.353s40.452 90.353 90.353 90.353h331.294v301.176c0 49.901 40.452 90.353 90.353 90.353z" />
<glyph unicode="&#xe92c;" glyph-name="whatsapp" d="M870.617 802.066c-87.071 86.961-202.771 139.328-325.567 147.36s-244.33-28.821-341.986-103.699c-97.656-74.879-164.785-182.684-188.896-303.358s-3.563-245.999 57.822-352.653l-71.99-262.858 269.033 70.625c74.389-40.56 157.774-61.781 242.502-61.719h0.217c135.022 0.009 264.583 53.322 360.507 148.347s150.457 224.076 151.741 359.092c-0.723 66.963-14.643 133.126-40.963 194.703s-64.521 117.362-112.42 164.162zM511.783 21.251c-75.593-0.065-149.808 20.226-214.854 58.74l-15.329 9.154-159.558-41.829 42.418 155.648-10.054 16.012c-33.689 55.566-54.108 118.154-59.671 182.899-5.563 64.742 3.88 129.896 27.596 190.396s61.065 114.714 109.144 158.43c48.079 43.716 105.591 75.754 168.068 93.625s128.233 21.092 192.155 9.414c63.922-11.678 124.292-37.942 176.413-76.748s94.593-89.112 124.109-147.003c29.516-57.893 45.283-121.809 46.074-186.787-1.176-112.339-46.632-219.676-126.492-298.695-79.863-79.019-187.674-123.333-300.020-123.318v0.062zM743.083 337.14c-12.567 6.392-74.969 37.019-86.637 41.146s-20.108 6.392-28.579-6.392c-8.471-12.784-32.675-41.146-40.339-49.835s-14.864-9.588-27.431-3.103c-74.473 37.236-123.439 66.529-172.56 150.869-13.033 22.404 13.033 20.79 37.236 69.26 1.654 3.506 2.414 7.367 2.216 11.236-0.202 3.873-1.356 7.633-3.364 10.951-3.103 6.392-28.579 68.794-39.098 94.176-10.271 24.824-20.79 21.256-28.579 21.721s-15.763 0.465-24.235 0.465c-6.414-0.178-12.726-1.668-18.544-4.38s-11.017-6.585-15.279-11.384c-14.322-13.6-25.66-30.031-33.294-48.245s-11.396-37.82-11.048-57.567c4.179-47.808 22.125-93.376 51.665-131.196 6.392-8.471 89.367-136.533 216.685-191.55 80.462-34.754 111.988-37.702 152.235-31.775 17.656 3.578 34.375 10.792 49.093 21.184 14.718 10.389 27.111 23.729 36.395 39.17 8.279 18.972 10.826 39.952 7.323 60.354-2.824 5.523-11.295 8.72-23.862 14.895z" />
<glyph unicode="&#xe92d;" glyph-name="youtube-play" horiz-adv-x="1393" d="M1356.206 724.717c2.511 54.867-16.855 108.489-53.85 149.085s-88.592 64.849-143.454 67.429c-147.743 6.963-298.394 9.626-452.239 9.626h-48.005c-153.6 0-304.498-2.662-452.241-9.585-54.878-2.769-106.425-27.166-143.357-67.852s-56.241-94.346-53.701-149.236c-6.676-94.904-9.626-189.85-9.339-284.754s2.662-189.85 9.052-285.041c-2.541-54.915 16.761-108.601 53.686-149.328 36.926-40.722 88.472-65.176 143.372-68.006 155.197-7.209 314.37-10.404 476.244-10.117 162.12-0.545 320.864 2.826 476.242 10.117 54.911 2.802 106.484 27.23 143.434 67.953 36.954 40.718 56.275 94.413 53.748 149.34 6.39 95.191 9.339 190.136 9.052 285.327 0.627 95.027-2.253 190.041-8.643 285.041zM551.997 177.819v524.001l386.662-261.857-386.662-262.144z" />
<glyph unicode="&#xe92e;" glyph-name="checkout-payment" horiz-adv-x="1280" d="M1126.4-73.143h-972.8c-87.040 0-153.6 66.56-153.6 153.6v716.8c0 87.040 66.56 153.6 153.6 153.6h972.8c87.040 0 153.6-66.56 153.6-153.6v-716.8c0-87.040-66.56-153.6-153.6-153.6zM153.6 874.057c-40.96 0-76.8-35.84-76.8-76.8v-716.8c0-40.96 35.84-76.8 76.8-76.8h972.8c40.96 0 76.8 35.84 76.8 76.8v716.8c0 40.96-35.84 76.8-76.8 76.8h-972.8zM1225.626 648.777h-1162.24c-20.48 0-40.96 15.36-40.96 40.96s15.36 40.96 40.96 40.96h1162.24c20.48 0 40.96-15.36 40.96-40.96s-20.48-40.96-40.96-40.96zM1225.626 392.777h-1162.24c-20.48 0-40.96 15.36-40.96 40.96s15.36 40.96 40.96 40.96h1162.24c20.48 0 40.96-15.36 40.96-40.96s-20.48-40.96-40.96-40.96z" />
<glyph unicode="&#xe92f;" glyph-name="down-large-1" horiz-adv-x="1707" d="M45.088 905.548c24.933 25.054 65.455 25.153 90.509 0.221l726.389-722.855 719.104 722.633c24.926 25.055 65.451 25.154 90.505 0.222s25.156-65.455 0.222-90.51l-809.387-813.369-817.121 813.148c-25.054 24.933-25.153 65.455-0.221 90.509z" />
<glyph unicode="&#xe930;" glyph-name="up-large-1" horiz-adv-x="1862" d="M1823.893-34.976c-27.201-27.331-71.401-27.443-98.732-0.242l-792.427 788.568-784.474-788.325c-27.198-27.331-71.405-27.443-98.737-0.242-27.332 27.192-27.441 71.403-0.242 98.735l882.969 887.309 891.401-887.067c27.331-27.199 27.443-71.403 0.242-98.734z" />
<glyph unicode="&#xe931;" glyph-name="checkmark1" d="M512 950.857c-101.264 0-200.253-30.028-284.451-86.288s-149.823-136.223-188.575-229.779c-38.752-93.556-48.891-196.502-29.136-295.82s68.519-190.551 140.123-262.153c71.604-71.601 162.834-120.367 262.153-140.123s202.264-9.618 295.819 29.137c93.559 38.754 173.518 104.377 229.782 188.574 56.257 84.197 86.284 183.187 86.284 284.451 0 135.791-53.941 266.020-149.961 362.038s-226.248 149.962-362.039 149.962zM774.144 580.642l-329.098-330.831c-7.545-7.872-17.722-12.694-28.593-13.548-11.055 0.792-21.38 5.813-28.83 14.021l-137.846 137.846c-0.929 0.916-1.666 2.008-2.169 3.211s-0.762 2.495-0.762 3.8c0 1.304 0.259 2.596 0.762 3.8s1.241 2.295 2.169 3.211l43.638 43.874c0.89 0.932 1.96 1.673 3.144 2.18s2.46 0.768 3.748 0.768c1.289 0 2.564-0.262 3.749-0.768s2.254-1.248 3.144-2.18l109.253-109.332 300.347 302.553c0.896 0.937 1.972 1.686 3.163 2.2s2.473 0.784 3.769 0.793c1.291 0.028 2.573-0.225 3.757-0.742s2.24-1.285 3.096-2.251l43.323-44.82c0.948-0.905 1.704-1.993 2.22-3.197s0.781-2.502 0.781-3.813c0-1.311-0.265-2.608-0.781-3.813s-1.271-2.292-2.22-3.197l0.236 0.236z" />
<glyph unicode="&#xe932;" glyph-name="close-popup" d="M619.975 438.743l325.234 325.291c13.733 14.402 21.294 33.604 21.060 53.503s-8.243 38.919-22.312 52.994c-14.069 14.076-33.081 22.092-52.981 22.336s-39.105-7.303-53.515-21.030l-325.233-325.518-325.177 325.234c-7.015 7.356-15.431 13.235-24.751 17.291s-19.358 6.207-29.522 6.326c-10.164 0.119-20.25-1.795-29.663-5.631s-17.964-9.516-25.15-16.705c-7.186-7.189-12.861-15.743-16.692-25.159s-5.74-19.502-5.616-29.666c0.125-10.164 2.281-20.201 6.342-29.519s9.944-17.731 17.304-24.742l325.461-325.006-325.177-325.234c-7.893-6.855-14.29-15.263-18.795-24.701-4.505-9.432-7.021-19.695-7.391-30.145-0.37-10.445 1.413-20.861 5.238-30.589 3.826-9.734 9.612-18.569 16.999-25.97s16.217-13.198 25.942-17.038c9.724-3.846 20.135-5.643 30.584-5.291 10.449 0.358 20.714 2.856 30.156 7.344s17.86 10.877 24.73 18.756l325.177 325.234 325.176-325.234c6.958-7.555 15.371-13.625 24.73-17.852 9.364-4.221 19.479-6.508 29.747-6.724s20.474 1.644 30.003 5.473c9.529 3.829 18.193 9.54 25.458 16.794 7.27 7.259 12.993 15.906 16.839 25.435 3.84 9.523 5.717 19.723 5.518 29.992s-2.475 20.389-6.679 29.759c-4.21 9.37-10.268 17.789-17.812 24.758l-325.234 325.234z" />
<glyph unicode="&#xe933;" glyph-name="feather-clock" d="M512 805.521c-72.517 0-143.412-21.504-203.707-61.792s-107.293-97.553-135.051-164.554c-27.748-67.001-35.009-140.721-20.868-211.849s49.071-136.461 100.347-187.741c51.282-51.283 116.615-86.204 187.741-100.347 71.129-14.156 144.848-6.888 211.849 20.866s124.268 74.749 164.558 135.051c40.287 60.3 61.792 131.191 61.792 203.707 0 97.247-38.636 190.507-107.39 259.273-68.765 68.766-162.027 107.391-259.273 107.391zM267.553 804.702c72.354 48.348 157.43 74.155 244.447 74.155 116.693 0 228.608-46.356 311.122-128.874 82.526-82.519 128.878-194.433 128.878-311.126 0-87.026-25.808-172.093-74.157-244.447s-117.067-128.758-197.467-162.057c-80.397-33.302-168.871-42.011-254.222-25.038s-163.755 58.877-225.289 120.422c-61.533 61.53-103.439 139.935-120.422 225.285s-8.266 173.824 25.041 254.222c33.302 80.398 89.698 149.12 162.057 197.469zM512 717.521c20.252 0 36.664-16.417 36.664-36.664v-219.338l141.063-70.536c18.115-9.053 25.452-31.082 16.399-49.197s-31.082-25.452-49.197-16.399l-161.336 80.664c-12.421 6.21-20.267 18.905-20.267 32.798v242c0 20.252 16.417 36.664 36.664 36.664z" />
<glyph unicode="&#xe934;" glyph-name="password-visible" horiz-adv-x="1260" d="M622.907 78.803c-339.889 0-530.747 322.954-538.703 336.896-3.414 5.858-5.43 12.894-5.43 20.401s2.016 14.543 5.535 20.597l-0.105-0.196c7.877 13.785 198.814 336.817 538.703 336.817s530.747-322.954 538.624-336.817c3.452-5.848 5.491-12.887 5.491-20.401s-2.039-14.553-5.595-20.591l0.104 0.19c-7.877-13.785-198.735-336.896-538.624-336.896zM167.936 436.021c45.765-67.033 208.266-275.692 454.971-275.692s409.6 208.66 454.971 275.692c-45.686 66.954-208.266 275.692-454.971 275.692s-409.206-208.581-454.971-275.614zM622.907 230.197c-113.717 0-205.903 92.186-205.903 205.903s92.186 205.903 205.903 205.903c113.717 0 205.903-92.186 205.903-205.903v0c-0.224-113.627-92.276-205.679-205.881-205.903h-0.022zM622.907 552.285c-64.167 0-116.185-52.018-116.185-116.185s52.018-116.185 116.185-116.185c64.167 0 116.185 52.018 116.185 116.185v0c-0.090 64.115-52.063 116.061-116.18 116.106h-0.004z" />
<glyph unicode="&#xe935;" glyph-name="password-hide" horiz-adv-x="1260" d="M630.233 163.165c-246.705 0-409.6 208.66-454.971 275.692v0c32.798 47.058 68.56 88.17 108.239 125.132l0.462 0.426-64.827 51.909c-48.194-45.92-90.369-97.462-125.669-153.754l-1.937-3.312c-3.414-5.858-5.43-12.894-5.43-20.401s2.016-14.543 5.535-20.597l-0.105 0.196c7.877-13.942 198.814-336.896 538.703-336.896 74.025 0.231 144.389 15.651 208.22 43.303l-3.42-1.319-74.358 59.471c-38.998-12.552-83.865-19.807-130.421-19.85h-0.021zM630.233 714.549c246.705 0 409.6-208.738 454.971-275.692-32.727-47.281-68.499-88.555-108.25-125.615l-0.451-0.416 64.748-51.751c48.164 45.959 90.337 97.524 125.661 153.821l1.945 3.323c3.452 5.848 5.491 12.887 5.491 20.401s-2.039 14.553-5.595 20.591l0.104-0.19c-7.877 13.863-198.735 336.817-538.624 336.817-74.025-0.233-144.388-15.653-208.22-43.303l3.42 1.319 74.516-59.628c38.911 12.728 83.7 20.148 130.198 20.322h0.087zM630.233 644.523c-20.459-0.322-40.033-3.61-58.471-9.453l1.442 0.394 261.593-209.29c0 4.175 1.26 7.877 1.339 12.446-0.045 113.699-92.204 205.858-205.898 205.903h-0.004zM630.233 233.033c20.377 0.321 39.869 3.61 58.223 9.451l-1.43-0.393-261.514 209.211c0-4.175-1.182-7.877-1.182-12.367 0-113.717 92.186-205.903 205.903-205.903v0zM1245.578-2.96l-1181.538 945.231c-6.609 5.348-15.117 8.586-24.382 8.586-0.041 0-0.081 0-0.122 0h0.006c-0.026 0-0.057 0-0.088 0-21.752 0-39.385-17.633-39.385-39.385 0-12.389 5.72-23.442 14.664-30.661l0.075-0.059 1181.538-945.231c6.679-5.381 15.267-8.637 24.615-8.637 21.758 0 39.396 17.638 39.396 39.396 0 12.41-5.738 23.479-14.705 30.7l-0.076 0.059z" />
<glyph unicode="&#xe936;" glyph-name="Icon-People" d="M512-73.28c-282.77 0-512 229.23-512 512s229.23 512 512 512c282.77 0 512-229.23 512-512v0c-0.311-282.645-229.355-511.689-511.97-512h-0.030zM512 882.454c-245.067 0-443.733-198.666-443.733-443.733s198.666-443.733 443.733-443.733c245.067 0 443.733 198.666 443.733 443.733v0c-0.291 244.95-198.783 443.442-443.705 443.733h-0.028zM636.109 203.781c-18.851 0-34.133 15.282-34.133 34.133v0 49.698c-0.058 35.976-29.216 65.122-65.191 65.161h-198.591c-35.971-0.039-65.122-29.189-65.161-65.157v-49.702c0-18.851-15.282-34.133-34.133-34.133s-34.133 15.282-34.133 34.133v0 49.698c0.097 73.651 59.776 133.33 133.418 133.427h198.597c73.665-0.078 133.364-59.764 133.461-133.418v-49.707c0-18.851-15.282-34.133-34.133-34.133v0zM437.521 452.032c-0.010 0-0.022 0-0.034 0-73.709 0-133.461 59.753-133.461 133.461s59.753 133.461 133.461 133.461c73.709 0 133.461-59.753 133.461-133.461v0c-0.078-73.665-59.764-133.364-133.418-133.461h-0.009zM437.521 650.654c-0.010 0-0.022 0-0.034 0-36.006 0-65.195-29.189-65.195-65.195s29.189-65.195 65.195-65.195c36.006 0 65.195 29.189 65.195 65.195 0 0.012 0 0.024 0 0.036v-0.002c-0.039 35.971-29.189 65.122-65.157 65.161h-0.004zM785.067 203.781c-18.851 0-34.133 15.282-34.133 34.133v0 49.664c-0.109 30.102-20.622 55.382-48.425 62.737l-0.454 0.102c-14.844 3.925-25.608 17.235-25.608 33.058 0 18.856 15.286 34.142 34.142 34.142 3.032 0 5.973-0.395 8.772-1.137l-0.238 0.054c57.905-15.324 99.921-67.177 100.079-128.869v-49.75c0-18.851-15.282-34.133-34.133-34.133v0zM611.26 454.831c-18.85 0.001-34.131 15.283-34.131 34.133 0 15.855 10.811 29.186 25.463 33.022l0.238 0.053c28.437 7.417 49.086 32.87 49.086 63.147s-20.649 55.73-48.632 63.046l-0.453 0.101c-14.844 3.925-25.608 17.235-25.608 33.058 0 18.856 15.286 34.142 34.142 34.142 3.032 0 5.973-0.395 8.772-1.137l-0.238 0.054c58.115-15.267 100.286-67.332 100.286-129.246s-42.171-113.979-99.356-129.038l-0.93-0.208c-2.571-0.715-5.523-1.126-8.572-1.126-0.022 0-0.045 0-0.067 0h0.004z" />
<glyph unicode="&#xe937;" glyph-name="Icon-Person-big" d="M791.415 138.654c-18.851 0-34.133 15.282-34.133 34.133v0 68.267c0 56.554-45.846 102.4-102.4 102.4v0h-273.067c-56.554 0-102.4-45.846-102.4-102.4v0-68.267c0-18.851-15.282-34.133-34.133-34.133s-34.133 15.282-34.133 34.133v0 68.267c0.116 94.21 76.457 170.55 170.655 170.667h273.078c94.21-0.116 170.55-76.457 170.667-170.655v-68.278c0-18.851-15.282-34.133-34.133-34.133v0zM518.349 479.988c-94.257 0-170.667 76.41-170.667 170.667s76.41 170.667 170.667 170.667c94.257 0 170.667-76.41 170.667-170.667v0c-0.116-94.21-76.457-170.55-170.655-170.667h-0.011zM518.349 753.054c-56.554 0-102.4-45.846-102.4-102.4s45.846-102.4 102.4-102.4c56.554 0 102.4 45.846 102.4 102.4v0c0 56.554-45.846 102.4-102.4 102.4v0z" />
<glyph unicode="&#xe938;" glyph-name="Icon-Person" d="M512-73.143c-282.77 0-512 229.23-512 512s229.23 512 512 512c282.77 0 512-229.23 512-512v0c-0.33-282.637-229.363-511.67-511.968-512h-0.032zM512 882.59c-245.067 0-443.733-198.666-443.733-443.733s198.666-443.733 443.733-443.733c245.067 0 443.733 198.666 443.733 443.733v0c-0.272 244.958-198.776 443.462-443.707 443.733h-0.026zM710.588 203.781c-18.851 0-34.133 15.282-34.133 34.133v0 49.664c-0.039 35.99-29.204 65.156-65.191 65.195h-198.557c-35.99-0.039-65.156-29.204-65.195-65.191v-49.668c0-18.851-15.282-34.133-34.133-34.133s-34.133 15.282-34.133 34.133v0 49.664c0.078 73.677 59.784 133.384 133.454 133.461h198.561c73.677-0.078 133.384-59.784 133.461-133.454v-49.671c0-18.851-15.282-34.133-34.133-34.133v0zM512 452.067c-0.010 0-0.022 0-0.034 0-73.69 0-133.427 59.737-133.427 133.427s59.737 133.427 133.427 133.427c73.69 0 133.427-59.737 133.427-133.427v0c-0.078-73.647-59.749-133.33-133.384-133.427h-0.009zM512 650.62c-0.010 0-0.022 0-0.034 0-35.987 0-65.161-29.173-65.161-65.161s29.173-65.161 65.161-65.161c35.987 0 65.161 29.173 65.161 65.161 0 0.012 0 0.024 0 0.036v-0.002c-0.039 35.953-29.174 65.088-65.123 65.126h-0.004z" />
<glyph unicode="&#xe939;" glyph-name="Icon-Arrow-Circle-right" d="M0 438.823c0 282.77 229.23 512 512 512s512-229.23 512-512c0-282.77-229.23-512-512-512v0c-282.645 0.311-511.689 229.355-512 511.97v0.030zM955.733 438.823c0 245.067-198.666 443.733-443.733 443.733s-443.733-198.666-443.733-443.733c0-245.067 198.666-443.733 443.733-443.733v0c244.958 0.272 443.462 198.776 443.733 443.707v0.026zM416.393 234.057c0 0.008 0 0.017 0 0.027 0 9.427 3.822 17.962 10.001 24.139l180.668 180.634-180.634 180.668c-6.183 6.179-10.008 14.718-10.008 24.149 0 18.855 15.285 34.14 34.14 34.14 9.423 0 17.955-3.818 24.132-9.991l204.8-204.8c6.185-6.178 10.011-14.717 10.011-24.149s-3.826-17.971-10.011-24.149v0l-204.8-204.8c-6.18-6.195-14.726-10.028-24.166-10.028-18.851 0-34.133 15.282-34.133 34.133 0 0.009 0 0.019 0 0.028v-0.002z" />
<glyph unicode="&#xe93a;" glyph-name="Icon-Arrow-Circle-down" d="M511.898 950.686c-282.77 0-512-229.23-512-512s229.23-512 512-512c282.77 0 512 229.23 512 512v0c-0.311 282.645-229.355 511.689-511.97 512h-0.030zM511.898-5.047c-245.067 0-443.733 198.666-443.733 443.733s198.666 443.733 443.733 443.733c245.067 0 443.733-198.666 443.733-443.733v0c-0.272-244.958-198.776-443.462-443.707-443.733h-0.026zM716.663 534.328c-0.008 0-0.017 0-0.027 0-9.427 0-17.962-3.822-24.139-10.001l-180.634-180.634-180.668 180.634c-5.83 4.785-13.365 7.686-21.578 7.686-18.851 0-34.133-15.282-34.133-34.133 0-8.213 2.901-15.749 7.733-21.638l-0.048 0.060 204.8-204.8c6.178-6.185 14.717-10.011 24.149-10.011s17.971 3.826 24.149 10.011v0l204.8 204.8c6.175 6.177 9.994 14.708 9.994 24.132 0 18.849-15.278 34.129-34.126 34.133v0z" />
<glyph unicode="&#xe93b;" glyph-name="Icon-Arrow-Circle-left" d="M1023.829 438.959c0 282.77-229.23 512-512 512s-512-229.23-512-512c0-282.77 229.23-512 512-512v0c282.645 0.311 511.689 229.355 512 511.97v0.030zM68.096 438.959c0 245.067 198.666 443.733 443.733 443.733s443.733-198.666 443.733-443.733c0-245.067-198.666-443.733-443.733-443.733v0c-244.958 0.272-443.462 198.776-443.733 443.707v0.026zM607.471 234.194c0 0.008 0 0.017 0 0.027 0 9.427-3.822 17.962-10.001 24.139l-180.634 180.634 180.634 180.668c4.785 5.83 7.686 13.365 7.686 21.578 0 18.851-15.282 34.133-34.133 34.133-8.213 0-15.749-2.901-21.638-7.733l0.060 0.048-204.8-204.8c-6.185-6.178-10.011-14.717-10.011-24.149s3.826-17.971 10.011-24.149v0l204.8-204.8c6.177-6.175 14.708-9.994 24.132-9.994 18.849 0 34.129 15.278 34.133 34.126v0z" />
<glyph unicode="&#xe93c;" glyph-name="Icon-Arrow-Circle-up" d="M511.898-73.28c-282.77 0-512 229.23-512 512s229.23 512 512 512c282.77 0 512-229.23 512-512v0c-0.311-282.645-229.355-511.689-511.97-512h-0.030zM511.898 882.454c-245.067 0-443.733-198.666-443.733-443.733s198.666-443.733 443.733-443.733c245.067 0 443.733 198.666 443.733 443.733v0c-0.272 244.958-198.776 443.462-443.707 443.733h-0.026zM716.698 343.147c-0.008 0-0.017 0-0.027 0-9.427 0-17.962 3.822-24.139 10.001l-180.634 180.634-180.668-180.634c-6.179-6.183-14.718-10.008-24.149-10.008-18.855 0-34.14 15.285-34.14 34.14 0 9.423 3.818 17.955 9.991 24.132l204.8 204.8c6.178 6.185 14.717 10.011 24.149 10.011s17.971-3.826 24.149-10.011v0l204.8-204.8c6.175-6.177 9.994-14.708 9.994-24.132 0-18.849-15.278-34.129-34.126-34.133v0z" />
<glyph unicode="&#xe93d;" glyph-name="link-default" horiz-adv-x="1025" d="M601.438 235.633c-0.274-0.001-0.599-0.002-0.925-0.002-14.636 0-29.014 1.105-43.055 3.237l1.575-0.197c-78.904 11.451-146.321 53.318-191.13 113.105l-0.539 0.751c-8.825 11.664-14.135 26.414-14.135 42.405 0 23.042 11.027 43.509 28.092 56.411l0.178 0.129c11.664 8.825 26.414 14.135 42.405 14.135 23.042 0 43.509-11.027 56.411-28.092l0.129-0.178c23.424-31.196 58.229-52.749 98.144-58.495l0.8-0.094c6.476-0.992 13.947-1.559 21.551-1.559 33.811 0 65.005 11.205 90.071 30.103l-0.381-0.275c6.082 4.514 11.456 9.148 16.473 14.141l132.296 132.296c27.051 27.167 43.775 64.636 43.775 106.011s-16.724 78.844-43.78 106.017l0.005-0.005c-27.167 27.051-64.636 43.775-106.011 43.775s-78.844-16.724-106.017-43.78l0.005 0.005-75.975-75.763c-12.789-12.785-30.454-20.692-49.967-20.692s-37.178 7.907-49.967 20.693v0c-12.785 12.789-20.692 30.454-20.692 49.967s7.907 37.178 20.693 49.967v0l75.904 75.622c52.748 52.642 125.563 85.195 205.98 85.195s153.232-32.553 205.985-85.199l-0.005 0.005c52.667-52.763 85.236-125.604 85.236-206.051s-32.569-153.288-85.241-206.056l-132.439-132.439c-9.703-9.761-20.106-18.798-31.14-27.038l-0.735-0.525c-47.62-35.92-107.792-57.529-173.011-57.529-0.199 0-0.397 0-0.596 0.001h0.031zM291.461-73.143v0c-0.183 0-0.4-0.001-0.618-0.001-80.302 0-152.975 32.665-205.456 85.433l-0.013 0.013c-52.696 52.48-85.305 125.096-85.305 205.328 0 0.266 0 0.533 0.001 0.799v-0.041c0 0.183-0.001 0.4-0.001 0.617 0 80.267 32.637 152.912 85.364 205.387l132.455 132.525c9.611 9.567 19.871 18.505 30.7 26.734l0.75 0.547c48.059 36.149 108.743 57.892 174.505 57.892 95.148 0 179.665-45.515 232.966-115.961l0.531-0.732c8.825-11.664 14.135-26.414 14.135-42.405 0-23.042-11.027-43.509-28.092-56.411l-0.178-0.129c-11.664-8.825-26.414-14.135-42.405-14.135-23.042 0-43.509 11.027-56.411 28.092l-0.129 0.178c-27.746 36.645-71.281 60.074-120.288 60.074-33.844 0-65.079-11.174-90.216-30.034l0.389 0.279c-5.979-4.561-11.281-9.191-16.263-14.143l-132.436-132.436c-27.155-27.014-43.96-64.408-43.96-105.728 0-0.1 0-0.199 0-0.299v0.015c0-0.067 0-0.146 0-0.225 0-41.338 16.804-78.751 43.954-105.781l0.005-0.005c27.042-27.197 64.484-44.030 105.856-44.030 0.054 0 0.109 0 0.163 0h-0.009c0.063 0 0.139 0 0.214 0 41.354 0 78.777 16.834 105.79 44.022l0.008 0.008 75.409 75.551c12.789 12.785 30.454 20.692 49.967 20.692s37.178-7.907 49.967-20.693v0c12.785-12.789 20.692-30.454 20.692-49.967s-7.907-37.178-20.693-49.967v0l-75.48-75.692c-52.422-52.736-125.010-85.375-205.222-85.375-0.229 0-0.458 0-0.687 0.001h0.035z" />
<glyph unicode="&#xe93e;" glyph-name="link-hover" horiz-adv-x="1025" d="M601.438 235.633c-0.274-0.001-0.599-0.002-0.925-0.002-14.636 0-29.014 1.105-43.055 3.237l1.575-0.197c-78.904 11.451-146.321 53.318-191.13 113.105l-0.539 0.751c-8.825 11.664-14.135 26.414-14.135 42.405 0 23.042 11.027 43.509 28.092 56.411l0.178 0.129c11.664 8.825 26.414 14.135 42.405 14.135 23.042 0 43.509-11.027 56.411-28.092l0.129-0.178c23.424-31.196 58.229-52.749 98.144-58.495l0.8-0.094c6.476-0.992 13.947-1.559 21.551-1.559 33.811 0 65.005 11.205 90.071 30.103l-0.381-0.275c6.082 4.514 11.456 9.148 16.473 14.141l132.296 132.296c27.051 27.167 43.775 64.636 43.775 106.011s-16.724 78.844-43.78 106.017l0.005-0.005c-27.167 27.051-64.636 43.775-106.011 43.775s-78.844-16.724-106.017-43.78l0.005 0.005-75.975-75.763c-12.789-12.785-30.454-20.692-49.967-20.692s-37.178 7.907-49.967 20.693v0c-12.785 12.789-20.692 30.454-20.692 49.967s7.907 37.178 20.693 49.967v0l75.904 75.622c52.748 52.642 125.563 85.195 205.98 85.195s153.232-32.553 205.985-85.199l-0.005 0.005c52.667-52.763 85.236-125.604 85.236-206.051s-32.569-153.288-85.241-206.056l-132.439-132.439c-9.703-9.761-20.106-18.798-31.14-27.038l-0.735-0.525c-47.62-35.92-107.792-57.529-173.011-57.529-0.199 0-0.397 0-0.596 0.001h0.031zM291.461-73.143v0c-0.183 0-0.4-0.001-0.618-0.001-80.302 0-152.975 32.665-205.456 85.433l-0.013 0.013c-52.696 52.48-85.305 125.096-85.305 205.328 0 0.266 0 0.533 0.001 0.799v-0.041c0 0.183-0.001 0.4-0.001 0.617 0 80.267 32.637 152.912 85.364 205.387l132.455 132.525c9.611 9.567 19.871 18.505 30.7 26.734l0.75 0.547c48.059 36.149 108.743 57.892 174.505 57.892 95.148 0 179.665-45.515 232.966-115.961l0.531-0.732c8.825-11.664 14.135-26.414 14.135-42.405 0-23.042-11.027-43.509-28.092-56.411l-0.178-0.129c-11.664-8.825-26.414-14.135-42.405-14.135-23.042 0-43.509 11.027-56.411 28.092l-0.129 0.178c-27.746 36.645-71.281 60.074-120.288 60.074-33.844 0-65.079-11.174-90.216-30.034l0.389 0.279c-5.979-4.561-11.281-9.191-16.263-14.143l-132.436-132.436c-27.155-27.014-43.96-64.408-43.96-105.728 0-0.1 0-0.199 0-0.299v0.015c0-0.067 0-0.146 0-0.225 0-41.338 16.804-78.751 43.954-105.781l0.005-0.005c27.042-27.197 64.484-44.030 105.856-44.030 0.054 0 0.109 0 0.163 0h-0.009c0.063 0 0.139 0 0.214 0 41.354 0 78.777 16.834 105.79 44.022l0.008 0.008 75.409 75.551c12.789 12.785 30.454 20.692 49.967 20.692s37.178-7.907 49.967-20.693v0c12.785-12.789 20.692-30.454 20.692-49.967s-7.907-37.178-20.693-49.967v0l-75.48-75.692c-52.422-52.736-125.010-85.375-205.222-85.375-0.229 0-0.458 0-0.687 0.001h0.035z" />
<glyph unicode="&#xe93f;" glyph-name="delete" horiz-adv-x="931" d="M883.146 765.3h-183.887v44.96c-0.255 77.689-63.165 140.599-140.829 140.854h-185.645c-77.689-0.255-140.599-63.165-140.854-140.829v-44.984h-183.759c-26.604 0-48.172-21.567-48.172-48.172v0c0-26.604 21.567-48.172 48.172-48.172v0h44.575v-601.246c0.255-77.689 63.165-140.599 140.829-140.854h464.013c77.689 0.255 140.599 63.165 140.854 140.829v601.27h44.96c26.604 0 48.172 21.567 48.172 48.172v0c0 0 0 0 0 0.001 0 26.604-21.567 48.172-48.172 48.172-0.090 0-0.181 0-0.271-0.001h0.014zM328.273 810.26c0.251 24.481 20.030 44.259 44.487 44.51h185.645c24.481-0.251 44.259-20.030 44.51-44.487v-44.984h-274.642zM742.1 67.968c-0.037-24.568-19.943-44.474-44.507-44.511h-463.993c-24.568 0.037-44.474 19.943-44.511 44.507v601.25h553.010zM372.848 533.37c-26.604 0-48.172-21.567-48.172-48.172v0-278.303c0-26.604 21.567-48.172 48.172-48.172v0c26.604 0 48.172 21.567 48.172 48.172v0 278.303c0 26.604-21.567 48.172-48.172 48.172v0zM558.534 533.37c-26.604 0-48.172-21.567-48.172-48.172v0-278.303c0-26.604 21.567-48.172 48.172-48.172v0c26.604 0 48.172 21.567 48.172 48.172v0 278.303c0 26.604-21.567 48.172-48.172 48.172v0z" />
<glyph unicode="&#xe940;" glyph-name="delete-hover" horiz-adv-x="931" d="M883.146 765.3h-183.887v44.96c-0.255 77.689-63.165 140.599-140.829 140.854h-185.645c-77.689-0.255-140.599-63.165-140.854-140.829v-44.984h-183.759c-26.604 0-48.172-21.567-48.172-48.172v0c0-26.604 21.567-48.172 48.172-48.172v0h44.575v-601.246c0.255-77.689 63.165-140.599 140.829-140.854h464.013c77.689 0.255 140.599 63.165 140.854 140.829v601.27h44.96c26.604 0 48.172 21.567 48.172 48.172v0c0 0 0 0 0 0.001 0 26.604-21.567 48.172-48.172 48.172-0.090 0-0.181 0-0.271-0.001h0.014zM328.273 810.26c0.251 24.481 20.030 44.259 44.487 44.51h185.645c24.481-0.251 44.259-20.030 44.51-44.487v-44.984h-274.642zM742.1 67.968c-0.037-24.568-19.943-44.474-44.507-44.511h-463.993c-24.568 0.037-44.474 19.943-44.511 44.507v601.25h553.010zM372.848 533.37c-26.604 0-48.172-21.567-48.172-48.172v0-278.303c0-26.604 21.567-48.172 48.172-48.172v0c26.604 0 48.172 21.567 48.172 48.172v0 278.303c0 26.604-21.567 48.172-48.172 48.172v0zM558.534 533.37c-26.604 0-48.172-21.567-48.172-48.172v0-278.303c0-26.604 21.567-48.172 48.172-48.172v0c26.604 0 48.172 21.567 48.172 48.172v0 278.303c0 26.604-21.567 48.172-48.172 48.172v0z" />
<glyph unicode="&#xe941;" horiz-adv-x="1183" d="M530.201 827.22c-118.813 120.306-579.31 70.519-467.29-323.598s399.439-219.872 467.29-356.77 520.069-302.873 603.042 0-170.114 211.593-145.213 452.197-338.994 107.845-457.829 228.172z" />
<glyph unicode="&#xe942;" glyph-name="download-pdf" d="M237.852 97.524c-21.993 0-39.822 17.829-39.822 39.822v0 657.465c0.161 21.871 17.928 39.538 39.821 39.538 0 0 0.001 0 0.001 0h245.077v-245.134c0-23.564 19.103-42.667 42.667-42.667v0h245.134v-227.157c5.416 1.128 11.721 1.865 18.166 2.045l0.152 0.003c25.464-0.089 48.83-8.997 67.222-23.827l-0.206 0.161v291.385c-0.013 11.844-4.863 22.553-12.681 30.26l-287.18 287.009c-4.004 4.175-8.832 7.525-14.227 9.794l-0.28 0.104c-0.403 0.119-0.921 0.238-1.448 0.329l-0.088 0.012c-4.321 1.77-9.329 2.846-14.576 2.957l-0.045 0.001h-287.744c0 0 0 0 0 0-69.022 0-124.993-55.872-125.155-124.856v-657.821c0-69.122 56.034-125.156 125.156-125.156v0h211.001l-85.333 85.333zM568.263 773.876l142.222-141.938h-142.222zM827.904 173.413c4.318 4.306 6.989 10.26 6.989 16.839s-2.671 12.533-6.989 16.839l-22.073 22.017c-4.29 4.382-10.266 7.099-16.876 7.099-6.804 0-12.936-2.878-17.245-7.484l-0.012-0.013-113.778-119.467v285.241c0 0.017 0 0.037 0 0.057 0 13.133-10.646 23.78-23.78 23.78-0.020 0-0.040 0-0.060 0h-31.798c-0.017 0-0.037 0-0.057 0-13.133 0-23.78-10.646-23.78-23.78 0-0.020 0-0.040 0-0.060v0.003-285.582l-113.778 119.467c-4.35 4.561-10.474 7.397-17.261 7.397-6.591 0-12.557-2.675-16.872-6.999v0l-22.016-22.016c-4.318-4.306-6.989-10.26-6.989-16.839s2.671-12.533 6.989-16.839l193.025-193.082c4.306-4.318 10.26-6.989 16.839-6.989s12.533 2.671 16.839 6.989l0.001 0.001z" />
<glyph unicode="&#xe943;" d="M526.222 450.178l170.155 100.039-108.089 62.919c-0.142 0-0.313 0-0.455 0.171l-48.612 28.103c-3.709 2.213-8.18 3.521-12.956 3.521s-9.247-1.308-13.074-3.586l0.118 0.065-157.269-91.278z" />
<glyph unicode="&#xe944;" glyph-name="shipping-inactive" d="M512 950.857c-282.633-0.34-511.66-229.366-512-511.967v-0.033c0.34-282.633 229.366-511.66 511.967-512h0.033c282.633 0.34 511.66 229.366 512 511.967v0.033c-0.34 282.633-229.366 511.66-511.967 512h-0.033zM512-44.699c-266.936 0.307-483.248 216.618-483.556 483.525v0.030c0.307 266.936 216.618 483.248 483.525 483.556h0.030c266.936-0.307 483.248-216.618 483.556-483.525v-0.030c-0.307-266.936-216.618-483.248-483.525-483.556h-0.030zM760.86 521.886c-0.151 10.717-2.739 20.794-7.234 29.749l0.179-0.395c-0.397 2.474-1.193 4.694-2.327 6.698l0.052-0.099c-1.476 2.525-3.379 4.637-5.632 6.303l-0.056 0.040c-5.27 7.12-11.672 13.060-18.997 17.666l-0.288 0.169-131.1 76.316c-0.191 0.082-0.437 0.169-0.688 0.243l-0.052 0.013-33.963 19.655c-9.863 5.893-21.755 9.377-34.46 9.377s-24.597-3.484-34.772-9.549l0.312 0.172-166.087-96.398c-7.575-4.744-13.941-10.657-19.040-17.562l-0.132-0.187c-2.304-1.702-4.206-3.804-5.636-6.218l-0.053-0.097c-1.049-1.89-1.841-4.086-2.256-6.413l-0.019-0.129c-4.315-8.579-6.903-18.676-7.054-29.362l-0.001-0.050v-192.626c0.019-25.461 13.64-47.736 33.987-59.955l0.317-0.176 165.86-96.256c6.927-3.968 15.030-6.794 23.657-7.982l0.35-0.039c2.995-1.916 6.627-3.090 10.527-3.185h0.026c3.935 0.095 7.577 1.269 10.665 3.236l-0.084-0.050c8.884 1.25 16.896 4.053 24.085 8.139l-0.333-0.174 166.144 96.427c20.561 12.405 34.105 34.612 34.133 59.985v192.658zM513.394 641.353c3.701 2.224 8.168 3.54 12.942 3.54s9.241-1.316 13.058-3.604l-0.115 0.064 48.583-28.132c0.171 0 0.341 0 0.512-0.142l108.089-62.919-170.155-100.039-170.183 100.011zM347.506 305.709c-7.975 4.809-13.227 13.425-13.227 23.268 0 0.010 0 0.020 0 0.030v-0.002 184.292l170.667-100.352v-198.656zM705.195 305.709l-157.525-91.42v198.628l170.667 100.267v-184.292c-0.135-9.679-5.328-18.116-13.049-22.802l-0.12-0.068z" />
<glyph unicode="&#xe945;" glyph-name="carousel-left" horiz-adv-x="539" d="M512-73.143c-7.454 0.002-14.201 3.030-19.078 7.922l-485.054 485.054c-4.875 4.876-7.89 11.612-7.89 19.052s3.015 14.176 7.89 19.052l485.053 485.053c4.907 5.076 11.777 8.227 19.383 8.227 14.883 0 26.947-12.065 26.947-26.947 0-7.606-3.151-14.476-8.219-19.376l-0.008-0.007-465.974-466.028 465.974-465.974c4.891-4.879 7.917-11.625 7.917-19.079 0-14.881-12.062-26.944-26.941-26.947v0z" />
<glyph unicode="&#xe946;" glyph-name="carousel-right" horiz-adv-x="539" d="M26.947-73.143c7.454 0.002 14.201 3.030 19.078 7.922l485.054 485.054c4.875 4.876 7.89 11.612 7.89 19.052s-3.015 14.176-7.89 19.052l-485.053 485.053c-4.907 5.076-11.777 8.227-19.383 8.227-14.883 0-26.947-12.065-26.947-26.947 0-7.606 3.151-14.476 8.219-19.376l0.008-0.007 465.974-466.028-465.974-465.974c-4.891-4.879-7.917-11.625-7.917-19.079 0-14.881 12.062-26.944 26.941-26.947v0z" />
<glyph unicode="&#xe947;" d="M0 950.857h1024v-1024h-1024v1024z" />
<glyph unicode="&#xe948;" d="M839.488 660.617h-89.216c4.476 12.209 7.064 26.307 7.064 41.009 0 67.688-54.872 122.56-122.56 122.56-42.432 0-79.827-21.563-101.826-54.328l-0.279-0.441-20.48-27.456-20.48 27.84c-22.278 33.206-59.673 54.769-102.104 54.769-67.688 0-122.56-54.872-122.56-122.56 0-14.702 2.589-28.8 7.335-41.862l-0.271 0.853h-89.664c-0.059 0-0.128 0-0.198 0-44.89 0-81.28-36.39-81.28-81.28 0-0.338 0.002-0.675 0.006-1.012v0.051l-0.384-450.368c0-0.076 0-0.166 0-0.256 0-45.066 36.534-81.6 81.6-81.6 0.090 0 0.18 0 0.27 0h655.026c0.076 0 0.166 0 0.256 0 45.066 0 81.6 36.534 81.6 81.6 0 0.090 0 0.18 0 0.27v-0.014 450.368c0 0.076 0 0.166 0 0.256 0 45.066-36.534 81.6-81.6 81.6-0.090 0-0.18 0-0.27 0h0.014zM634.688 742.473c22.622 0 40.96-18.338 40.96-40.96s-18.338-40.96-40.96-40.96c-22.622 0-40.96 18.338-40.96 40.96v0c0.036 22.665 18.418 41.024 41.088 41.024v0zM389.056 742.473c22.622 0 40.96-18.338 40.96-40.96s-18.338-40.96-40.96-40.96c-22.622 0-40.96 18.338-40.96 40.96v0c0.036 22.665 18.418 41.024 41.088 41.024v0zM839.424 128.073h-654.976v81.92h655.040zM839.424 332.873h-654.976v245.888h208l-85.056-115.84 66.24-48.128 97.408 132.864 40.96 55.68 40.96-55.68 97.408-132.864 66.624 48.128-85.184 115.84h208z" />
<glyph unicode="&#xe949;" glyph-name="radio-button-default" d="M512-73.143c-282.77 0-512 229.23-512 512s229.23 512 512 512c282.77 0 512-229.23 512-512v0c-0.324-282.64-229.361-511.677-511.969-512h-0.031zM512 893.968c-251.351 0-455.111-203.76-455.111-455.111s203.76-455.111 455.111-455.111c251.351 0 455.111 203.76 455.111 455.111v0c-0.291 251.233-203.877 454.82-455.083 455.111h-0.028z" />
<glyph unicode="&#xe94a;" glyph-name="radio-button-selected" d="M512-73.143c-282.77 0-512 229.23-512 512s229.23 512 512 512c282.77 0 512-229.23 512-512v0c-0.324-282.64-229.361-511.677-511.969-512h-0.031zM512 893.968c-251.351 0-455.111-203.76-455.111-455.111s203.76-455.111 455.111-455.111c251.351 0 455.111 203.76 455.111 455.111v0c-0.291 251.233-203.877 454.82-455.083 455.111h-0.028zM739.556 438.857c0-125.675-101.88-227.556-227.556-227.556s-227.556 101.88-227.556 227.556c0 125.675 101.88 227.556 227.556 227.556s227.556-101.88 227.556-227.556z" />
<glyph unicode="&#xe94b;" glyph-name="checkbox-default" d="M895.944-73.143h-767.952c-70.688 0-127.992 57.304-127.992 127.992v0 767.952c0 70.688 57.304 127.992 127.992 127.992v0h767.952c70.688 0 127.992-57.304 127.992-127.992v0-767.952c0-70.688-57.304-127.992-127.992-127.992v0zM127.992 886.797c-35.344 0-63.996-28.652-63.996-63.996v0-767.952c0-35.344 28.652-63.996 63.996-63.996v0h767.952c35.344 0 63.996 28.652 63.996 63.996v0 767.952c0 35.344-28.652 63.996-63.996 63.996v0z" />
<glyph unicode="&#xe94c;" glyph-name="checkbox-selected" d="M895.944-73.207h-767.952c-70.688 0-127.992 57.304-127.992 127.992v0 767.952c0 70.688 57.304 127.992 127.992 127.992v0h767.952c70.688 0 127.992-57.304 127.992-127.992v0-767.952c0-70.688-57.304-127.992-127.992-127.992v0zM127.992 886.733c-35.344 0-63.996-28.652-63.996-63.996v0-767.952c0-35.344 28.652-63.996 63.996-63.996v0h767.952c35.344 0 63.996 28.652 63.996 63.996v0 767.952c0 35.344-28.652 63.996-63.996 63.996v0zM411.046 189.817c-0.051 0-0.112 0-0.172 0-17.617 0-33.56 7.169-45.070 18.748l-168.248 168.248c-12.054 11.653-19.537 27.969-19.537 46.032 0 35.344 28.652 63.996 63.996 63.996 18.063 0 34.378-7.484 46.014-19.519l0.017-0.018 123-123 324.908 324.844c11.497 11.115 27.178 17.964 44.459 17.964 35.344 0 63.996-28.652 63.996-63.996 0-17.281-6.849-32.962-17.982-44.477l0.017 0.018-370.153-370.153c-11.575-11.547-27.551-18.687-45.195-18.687-0.018 0-0.035 0-0.053 0h0.003z" />
<glyph unicode="&#xe94d;" glyph-name="pay-now-icon" d="M861.952 498.313h-44.8v133.696c-2.394 154.073-127.854 278.054-282.272 278.054s-279.878-123.98-282.269-277.829l-0.003-0.225v-133.696h-44.8c-49.044-0.254-88.704-40.071-88.704-89.151 0 0 0-0.001 0-0.001v0-356.544c0-49.237 39.915-89.152 89.152-89.152v0h653.696c49.237 0 89.152 39.915 89.152 89.152v0 356.544c0 49.237-39.915 89.152-89.152 89.152v0zM668.8 498.313h-267.392v133.696c0 73.856 59.872 133.728 133.728 133.728s133.728-59.872 133.728-133.728v0z" />
<glyph unicode="&#xe94e;" d="M512 950.857c-282.77 0-512-229.23-512-512v0c0-282.77 229.23-512 512-512v0c282.77 0 512 229.23 512 512v0c0 282.77-229.23 512-512 512v0zM827.961 220.347l-625.436-3.015c-2.358 0.182-4.545 0.637-6.62 1.336l0.191-0.056c-1.764 0.201-3.355 0.531-4.891 0.989l0.197-0.051c-1.022 0.6-1.885 1.183-2.711 1.812l0.066-0.048c-5.533 2.973-9.868 7.565-12.443 13.137l-0.073 0.175c-1.433 3.253-2.278 7.042-2.304 11.027v0.010l-0.341 74.212 682.325 3.271 0.37-74.212c0-0.039 0-0.085 0-0.13 0-3.924-0.795-7.663-2.232-11.064l0.070 0.187c-1.494-3.56-3.55-6.6-6.089-9.161l0.002 0.002c-2.526-2.549-5.528-4.621-8.862-6.073l-0.184-0.071c-3.255-1.424-7.046-2.259-11.030-2.276h-0.006zM200.59 622.352l625.436 3.015c0.027 0 0.059 0 0.091 0 3.95 0 7.713-0.805 11.132-2.261l-0.186 0.070c3.547-1.489 6.578-3.535 9.133-6.061l-0.003 0.003c2.554-2.541 4.627-5.562 6.073-8.918l0.071-0.185c1.421-3.237 2.256-7.008 2.276-10.972v-0.007l0.37-75.036-682.354-3.3v24.775c0.994-0.349 2.145-0.592 3.34-0.68l0.045-0.003h0.228l371.996 5.689c7.757 0.127 13.997 6.445 13.997 14.22 0 0.081-0.001 0.161-0.002 0.241v-0.012c-0.237 7.779-6.6 13.995-14.415 13.995-0.012 0-0.024 0-0.037 0h0.002l-371.996-5.689c-1.212-0.101-2.333-0.354-3.389-0.74l0.090 0.029v23.239c0 0.019 0 0.040 0 0.062 0 3.95 0.805 7.713 2.261 11.132l-0.070-0.186c1.455 3.431 3.432 6.365 5.865 8.851l-0.005-0.005 0.199 0.284c2.53 2.567 5.542 4.649 8.891 6.102l0.183 0.071c3.178 1.38 6.874 2.21 10.756 2.275h0.025zM173.54 348.318l-0.683 141.938 682.354 3.3 0.683-140.942v-0.996z" />
<glyph unicode="&#xe94f;" d="M854.13 237.925c1.367 3.214 2.162 6.953 2.162 10.878 0 0.046 0 0.092 0 0.137v-0.007l-0.37 74.212-682.325-3.271 0.341-74.212c0.026-3.994 0.871-7.784 2.375-11.219l-0.071 0.183c2.648-5.747 6.983-10.339 12.365-13.238l0.15-0.074c0.76-0.581 1.624-1.163 2.521-1.695l0.125-0.068c1.338-0.408 2.93-0.738 4.564-0.927l0.129-0.012c1.883-0.643 4.070-1.098 6.335-1.274l0.093-0.006 625.436 3.015c3.991 0.016 7.782 0.852 11.22 2.347l-0.184-0.071c3.518 1.523 6.52 3.595 9.043 6.142l0.002 0.002c2.537 2.559 4.593 5.599 6.017 8.972l0.070 0.187z" />
<glyph unicode="&#xe950;" d="M855.808 351.618v0 1.024l-0.683 140.914-682.354-3.3 0.683-141.909 682.268 3.271z" />
<glyph unicode="&#xe951;" d="M180.309 613.62c-2.428-2.481-4.404-5.415-5.79-8.662l-0.070-0.184c-1.385-3.233-2.19-6.995-2.19-10.946 0-0.022 0-0.044 0-0.066v0.003-23.239c0.967 0.357 2.087 0.61 3.252 0.708l0.047 0.003 371.996 5.689c0.010 0 0.023 0 0.035 0 7.815 0 14.178-6.216 14.414-13.973l0.001-0.022c0.001-0.068 0.002-0.149 0.002-0.229 0-7.775-6.239-14.093-13.985-14.22h-0.012l-372.224-5.689c-1.24 0.091-2.391 0.334-3.48 0.711l0.095-0.029v-24.775l682.354 3.3-0.37 75.036c-0.019 3.971-0.855 7.743-2.346 11.162l0.071-0.182c-1.517 3.54-3.59 6.561-6.143 9.101l-0.001 0.001c-2.552 2.524-5.583 4.57-8.944 5.989l-0.187 0.070c-3.233 1.385-6.995 2.19-10.946 2.19-0.032 0-0.064 0-0.096 0h0.005l-625.436-3.015c-3.982-0.033-7.761-0.867-11.196-2.348l0.188 0.072c-3.532-1.523-6.544-3.606-9.070-6.169l-0.003-0.003z" />
<glyph unicode="&#xe952;" glyph-name="payment-inactive" d="M512-73.143c-282.633 0.34-511.66 229.366-512 511.967v0.033c0.34 282.633 229.366 511.66 511.967 512h0.033c282.64-0.324 511.677-229.361 512-511.969v-0.031c-0.324-282.64-229.361-511.677-511.969-512h-0.031zM512 922.413c-266.936-0.307-483.248-216.618-483.556-483.525v-0.030c0.307-266.936 216.618-483.248 483.525-483.556h0.030c266.936 0.307 483.248 216.618 483.556 483.525v0.030c-0.307 266.936-216.618 483.248-483.525 483.556h-0.030zM202.411 188.887c0 0 0 0-0.001 0-31.329 0-56.743 25.324-56.888 56.619v0.014l-1.678 348.103c0 0.085-0.001 0.185-0.001 0.285 0 31.329 25.325 56.743 56.62 56.888h0.014l625.692 3.015c0 0 0 0 0 0 31.339 0 56.759-25.34 56.888-56.649v-0.012l1.678-348.075c0-0.085 0.001-0.185 0.001-0.285 0-31.329-25.325-56.743-56.62-56.888h-0.014l-625.436-3.015zM200.619 622.352c0 0 0 0-0.001 0-15.709 0-28.444-12.735-28.444-28.444 0-0.060 0-0.12 0.001-0.18v0.009l1.678-348.075c0-15.709 12.735-28.444 28.444-28.444v0h0.142l625.436 3.015c0 0 0 0 0.001 0 15.709 0 28.444 12.735 28.444 28.444 0 0.060 0 0.12-0.001 0.18v-0.009l-1.678 348.075c0 15.709-12.735 28.444-28.444 28.444v0h-0.142l-625.408-3.015zM200.619 636.574v0zM159.403 319.817c-7.855 0-14.222 6.368-14.222 14.222v0l-0.825 170.411c0 0.016 0 0.035 0 0.054 0 3.907 1.575 7.446 4.125 10.016l-0.001-0.001c2.551 2.612 6.106 4.234 10.040 4.238h0.001l710.798 3.413c7.855 0 14.222-6.368 14.222-14.222v0l0.825-170.411c0-0.016 0-0.035 0-0.054 0-3.893-1.564-7.42-4.098-9.988l0.002 0.002c-2.561-2.597-6.11-4.213-10.036-4.238l-710.803-3.413zM172.885 490.256l0.683-141.909 682.354 3.271-0.683 141.938zM175.957 542.793c-0.001 0-0.001 0-0.002 0-7.775 0-14.092 6.238-14.22 13.983v0.012c-0.001 0.068-0.002 0.148-0.002 0.229 0 7.785 6.256 14.11 14.014 14.221h0.010l372.224 5.689c0.001 0 0.001 0 0.002 0 7.775 0 14.092-6.238 14.22-13.983v-0.012c0.001-0.068 0.002-0.148 0.002-0.229 0-7.785-6.256-14.11-14.014-14.221h-0.010l-371.996-5.689z" />
<glyph unicode="&#xe953;" glyph-name="share-icon-hover" horiz-adv-x="937" d="M729.007 343.455c-47.9-0.194-91.909-16.691-126.806-44.226l0.437 0.332-189.008 110.124c1.6 8.573 2.667 18.614 2.961 28.847l0.006 0.285c-0.301 10.603-1.368 20.725-3.152 30.598l0.185-1.231 188.851 110.124c34.482-27.293 78.551-43.851 126.481-44.050h0.045c115.040 0 208.299 93.259 208.299 208.299s-93.259 208.299-208.299 208.299c-115.040 0-208.299-93.259-208.299-208.299v0c0.305-10.606 1.372-20.728 3.153-30.602l-0.185 1.235-188.773-110.124c-35.008 27.609-79.759 44.284-128.404 44.284-115.040 0-208.299-93.259-208.299-208.299s93.259-208.299 208.299-208.299c48.645 0 93.395 16.675 128.847 44.621l-0.443-0.337 188.617-109.968c-1.599-8.709-2.666-18.913-2.961-29.311l-0.007-0.29c0-115.040 93.259-208.299 208.299-208.299s208.299 93.259 208.299 208.299c0 115.040-93.259 208.299-208.299 208.299v0zM729.007 794.652c28.737-0.044 52.016-23.351 52.016-52.094 0-28.771-23.323-52.094-52.094-52.094s-52.094 23.323-52.094 52.094v0c0.089 28.704 23.378 51.938 52.094 51.938 0.055 0 0.11 0 0.165 0h-0.008zM156.127 438.818c0 28.771 23.323 52.094 52.094 52.094s52.094-23.323 52.094-52.094c0-28.771-23.323-52.094-52.094-52.094v0c-28.719 0.089-51.972 23.369-52.016 52.090v0.004zM728.929 83.062c-28.771 0-52.094 23.323-52.094 52.094s23.323 52.094 52.094 52.094c28.771 0 52.094-23.323 52.094-52.094v0c0 0 0 0 0 0 0-28.743-23.279-52.050-52.012-52.094h-0.004z" />
<glyph unicode="&#xe954;" glyph-name="share-icon" horiz-adv-x="937" d="M729.007 343.455c-47.9-0.194-91.909-16.691-126.806-44.226l0.437 0.332-189.008 110.124c1.6 8.573 2.667 18.614 2.961 28.847l0.006 0.285c-0.301 10.603-1.368 20.725-3.152 30.598l0.185-1.231 188.851 110.124c34.482-27.293 78.551-43.851 126.481-44.050h0.045c115.040 0 208.299 93.259 208.299 208.299s-93.259 208.299-208.299 208.299c-115.040 0-208.299-93.259-208.299-208.299v0c0.305-10.606 1.372-20.728 3.153-30.602l-0.185 1.235-188.773-110.124c-35.008 27.609-79.759 44.284-128.404 44.284-115.040 0-208.299-93.259-208.299-208.299s93.259-208.299 208.299-208.299c48.645 0 93.395 16.675 128.847 44.621l-0.443-0.337 188.617-109.968c-1.599-8.709-2.666-18.913-2.961-29.311l-0.007-0.29c0-115.040 93.259-208.299 208.299-208.299s208.299 93.259 208.299 208.299c0 115.040-93.259 208.299-208.299 208.299v0zM729.007 794.652c28.737-0.044 52.016-23.351 52.016-52.094 0-28.771-23.323-52.094-52.094-52.094s-52.094 23.323-52.094 52.094v0c0.089 28.704 23.378 51.938 52.094 51.938 0.055 0 0.11 0 0.165 0h-0.008zM156.127 438.818c0 28.771 23.323 52.094 52.094 52.094s52.094-23.323 52.094-52.094c0-28.771-23.323-52.094-52.094-52.094v0c-28.719 0.089-51.972 23.369-52.016 52.090v0.004zM728.929 83.062c-28.771 0-52.094 23.323-52.094 52.094s23.323 52.094 52.094 52.094c28.771 0 52.094-23.323 52.094-52.094v0c0 0 0 0 0 0 0-28.743-23.279-52.050-52.012-52.094h-0.004z" />
<glyph unicode="&#xe955;" glyph-name="Compare" horiz-adv-x="1411" d="M1355.613 711.080h-549.17l145.358 145.21c10.027 10.021 16.229 23.868 16.229 39.163s-6.202 29.142-16.229 39.163v0c-10.029 10.009-23.873 16.199-39.163 16.199s-29.134-6.189-39.164-16.2l-245.978-245.83c-10.036-10.022-16.244-23.875-16.244-39.178 0-14.286 5.41-27.308 14.294-37.129l-0.042 0.048 234.684-259.931c10.113-11.259 24.719-18.308 40.971-18.308 0.052 0 0.104 0 0.156 0h-0.008c14.227 0.029 27.185 5.433 36.958 14.289l-0.047-0.042c11.245 10.161 18.281 24.798 18.281 41.078 0 14.299-5.428 27.331-14.335 37.146l0.041-0.046-156.579 173.558h569.84c30.579 0 55.367 24.789 55.367 55.367v0c0 0.022 0 0.048 0 0.074 0 30.527-24.705 55.283-55.212 55.367h-0.008zM537.358 527.186c-10.029 10.009-23.873 16.199-39.163 16.199s-29.134-6.189-39.164-16.2l0.001 0.001c-10.027-10.021-16.229-23.868-16.229-39.163s6.202-29.142 16.229-39.163l145.432-145.21h-549.096c-30.579 0-55.367-24.789-55.367-55.367v0c0-30.579 24.789-55.367 55.367-55.367v0h569.84l-156.653-173.558c-8.829-9.77-14.231-22.783-14.231-37.058 0-16.295 7.039-30.946 18.243-41.078l0.048-0.043c9.726-8.814 22.685-14.219 36.906-14.248h0.006c0.044 0 0.096 0 0.148 0 16.252 0 30.858 7.049 40.926 18.258l0.045 0.051 234.536 259.931c8.862 9.779 14.286 22.816 14.286 37.12 0 15.284-6.193 29.121-16.206 39.14v0z" />
</font>
</defs>
</svg>
